Today is a free download without charge Download

Madonna - Sticky and Sweet Tour (Nathan Rissman, Nick Wickham) [2008, BDRip, H.264/1080р]

Reply to topic
 
Author
Message

NarDok ®

Longevity: 9 years 4 months

Posts: 914

Торрент-статистика

Post 05-Sep-2015 16:48

[Quote]

Madonna - Sticky and Sweet Tour - Выпущено: США | Warner Music
Жанр: Pop
Год выпуска: 2008
Режиссер: Nathan Rissman, Nick Wickham
Исполнитель: Madonna
Описание:
Запись шоу поп-певицы Мадонна составлена по материалам южноамериканской части мирового турне, озаглавленного "Sticky and Sweet", а именно выступлений 4, 6 и 7 декабря 2008 года на концертной площадке River Plate Stadium в Буэнос-Айресе (Аргентина). "Sticky and Sweet" — восьмой по счету мировой тур Мадонны, приуроченный к выходу одиннадцатого альбома поп-исполнительницы "Hard Candy", релиз которого состоялся в конце апреля 2008 года.
Продолжительность: 02:05:09
Качество видео: BDRip (1080р)
Контейнер: MKV
Битрейт видео: ~15,5 Mbps, (16:9), 1920x1080р, 29,970 fps, High Profile 4.1
Видеокодек: MPEG-4 AVC
Аудиокодек: DTS, AC3
Аудио #1: DTS 5.1, 1509 kbps, 48 kHz
Аудио #2: AC2.0, 640 kbps, 48 kHz
Семпл
Релиз от
..

Треклист:

Треклист:
1. Intro: The Sweet Machine
2. Candy Shop Medley
3. Beat Goes On Medley [Feat. Kanye West]
4. Human Nature
5. Vogue 2008
6. Die Another Day 2008
7. Into The Groove 2008
8. Heartbeat
9. Borderline
10. She's Not Me
11. Music 2008
12. Rain/Here Comes The Rain Again
13. Devil Wouldn't Recognize You
14. Spanish Lesson
15. Miles Away
16. La Isla Bonita Medley
17. Me Darava/Doli Doli
18. You Must Love Me
19. Don't Cry For Me Argentina
20. Get Stupid Medley
21. 4 Minutes [Feat. Justin Timberlake And Timbaland]
22. Like A Prayer 2008
23. Ray Of Light
24. Like A Virgin 2008
25. Hung Up Medley
26. Give It 2 Me
27. Credits

h.264 log

---[Information] [31.01.2014 15:32:25] x264 [info]: profile High, level 4.1
---[Information] [01.02.2014 1:43:02] x264 [info]: frame I:2069 Avg QP:16.14 size:175541
---[Information] [01.02.2014 1:43:02] x264 [info]: frame P:70199 Avg QP:19.89 size: 94504
---[Information] [01.02.2014 1:43:02] x264 [info]: frame B:152793 Avg QP:21.73 size: 49373
---[Information] [01.02.2014 1:43:02] x264 [info]: consecutive B-frames: 8.1% 10.2% 17.8% 24.7% 10.6% 26.5% 1.7% 0.3% 0.2%
---[Information] [01.02.2014 1:43:02] x264 [info]: mb I I16..4: 13.3% 72.4% 14.3%
---[Information] [01.02.2014 1:43:02] x264 [info]: mb P I16..4: 4.8% 34.8% 3.7% P16..4: 29.6% 11.0% 5.0% 0.2% 0.0% skip:10.8%
---[Information] [01.02.2014 1:43:02] x264 [info]: mb B I16..4: 0.7% 4.6% 0.6% B16..8: 37.6% 12.2% 2.7% direct:13.6% skip:28.0% L0:44.2% L1:40.9% BI:14.9%
---[Information] [01.02.2014 1:43:02] x264 [info]: 8x8 transform intra:79.7% inter:73.2%
---[Information] [01.02.2014 1:43:02] x264 [info]: direct mvs spatial:97.9% temporal:2.1%
---[Information] [01.02.2014 1:43:02] x264 [info]: coded y,uvDC,uvAC intra: 78.9% 78.8% 48.5% inter: 39.3% 41.0% 7.9%
---[Information] [01.02.2014 1:43:02] x264 [info]: i16 v,h,dc,p: 42% 21% 14% 23%
---[Information] [01.02.2014 1:43:02] x264 [info]: i8 v,h,dc,ddl,ddr,vr,hd,vl,hu: 18% 11% 10% 8% 10% 12% 10% 12% 10%
---[Information] [01.02.2014 1:43:02] x264 [info]: i4 v,h,dc,ddl,ddr,vr,hd,vl,hu: 29% 11% 5% 7% 10% 12% 10% 9% 9%
---[Information] [01.02.2014 1:43:02] x264 [info]: i8c dc,h,v,p: 38% 24% 22% 16%
---[Information] [01.02.2014 1:43:02] x264 [info]: Weighted P-Frames: Y:10.2% UV:6.9%
---[Information] [01.02.2014 1:43:02] x264 [info]: ref P L0: 49.1% 10.3% 22.3% 13.9% 4.1% 0.3%
---[Information] [01.02.2014 1:43:02] x264 [info]: ref B L0: 83.9% 12.0% 4.1%
---[Information] [01.02.2014 1:43:02] x264 [info]: ref B L1: 93.2% 6.8%
---[Information] [01.02.2014 1:43:02] x264 [info]: kb/s:15490.86

MediaInfo

Формат : Matroska
Версия формата : Version 2
Размер файла : 15,4 Гбайт
Продолжительность : 2 ч. 5 м.
Общий поток : 17,6 Мбит/сек
Дата кодирования : UTC 2014-01-31 20:23:41
Программа кодирования : mkvmerge v3.3.0 ('Language') built on Mar 24 2010 14:59:24
Библиотека кодирования : libebml v0.8.0 + libmatroska v0.9.0
Видео
Идентификатор : 1
Формат : AVC
Формат/Информация : Advanced Video Codec
Профиль формата : [url=mailto:[email protected]][email protected][/url]
Параметр CABAC формата : Да
Параметр ReFrames формата : 4 кадра
Идентификатор кодека : V_MPEG4/ISO/AVC
Продолжительность : 2 ч. 5 м.
Битрейт : 15,5 Мбит/сек
Ширина : 1920 пикселей
Высота : 1080 пикселей
Соотношение сторон : 16:9
Режим частоты кадров : Постоянный
Частота кадров : 29,970 кадров/сек
Цветовое пространство : YUV
Субдискретизация насыщенности : 4:2:0
Битовая глубина : 8 бит
Тип развёртки : Прогрессивная
Бит/(Пиксели*Кадры) : 0.249
Размер потока : 13,2 Гбайт (86%)
Заголовок :
Библиотека кодирования : x264 core 138 r2358 9e941d1
Настройки программы : cabac=1 / ref=4 / deblock=1:-3:-3 / analyse=0x3:0x133 / me=umh / subme=10 / psy=1 / psy_rd=1.00:0.15 / mixed_ref=1 / me_range=30 / chroma_me=1 / trellis=2 / 8x8dct=1 / cqm=0 / deadzone=21,11 / fast_pskip=0 / chroma_qp_offset=-3 / threads=12 / lookahead_threads=2 / sliced_threads=0 / nr=0 / decimate=1 / interlaced=0 / bluray_compat=0 / constrained_intra=0 / bframes=8 / b_pyramid=2 / b_adapt=2 / b_bias=0 / direct=3 / weightb=1 / open_gop=0 / weightp=2 / keyint=300 / keyint_min=29 / scenecut=40 / intra_refresh=0 / rc_lookahead=40 / rc=2pass / mbtree=1 / bitrate=15500 / ratetol=1.0 / qcomp=0.60 / qpmin=0 / qpmax=69 / qpstep=4 / cplxblur=20.0 / qblur=0.5 / ip_ratio=1.40 / aq=1:1.00
Язык : English
Default : Нет
Forced : Нет
Аудио #1
Идентификатор : 2
Формат : DTS
Формат/Информация : Digital Theater Systems
Режим : 16
Параметр Endianness формата : Big
Идентификатор кодека : A_DTS
Продолжительность : 2 ч. 5 м.
Вид битрейта : Постоянный
Битрейт : 1509 Кбит/сек
Каналы : 6 каналов
Расположение каналов : Front: L C R, Side: L R, LFE
Частота : 48,0 КГц
Битовая глубина : 24 бит
Метод сжатия : С потерями
Размер потока : 1,32 Гбайт (9%)
Заголовок : DTS
Язык : English
Default : Да
Forced : Нет
Аудио #2
Идентификатор : 3
Формат : AC-3
Формат/Информация : Audio Coding 3
Расширение режима : CM (complete main)
Параметр Endianness формата : Big
Идентификатор кодека : A_AC3
Продолжительность : 2 ч. 5 м.
Вид битрейта : Постоянный
Битрейт : 640 Кбит/сек
Каналы : 2 канала
Расположение каналов : Front: L R
Частота : 48,0 КГц
Метод сжатия : С потерями
Размер потока : 573 Мбайт (4%)
Заголовок : АС3
Язык : English
Default : Нет
Forced : Нет
Меню
00:00:00.000 : :Chapter 01
00:03:31.010 : :Chapter 02
00:07:15.034 : :Chapter 03
00:11:41.100 : :Chapter 04
00:15:34.166 : :Chapter 05
00:20:04.703 : :Chapter 06
00:23:05.450 : :Chapter 07
00:28:47.158 : :Chapter 08
00:33:39.717 : :Chapter 09
00:37:25.443 : :Chapter 10
00:42:04.522 : :Chapter 11
00:47:13.831 : :Chapter 12
00:51:07.431 : :Chapter 13
00:56:39.929 : :Chapter 14
01:00:33.129 : :Chapter 15
01:05:22.418 : :Chapter 16
01:10:56.685 : :Chapter 17
01:14:01.270 : :Chapter 18
01:17:36.251 : :Chapter 19
01:20:24.886 : :Chapter 20
01:23:27.335 : :Chapter 21
01:28:07.882 : :Chapter 22
01:33:41.782 : :Chapter 23
01:42:33.013 : :Chapter 24
01:45:26.353 : :Chapter 25
01:51:31.851 : :Chapter 26
01:59:25.024 : :Chapter 27
Скриншоты:
       

_________________

Other forum [Profile] [PM]
Display posts from previous:    
Reply to topic

The time now is: Today 08:11

All times are GMT + 3 Hours



You cannot post new topics in this forum
You cannot reply to topics in this forum
You cannot edit your posts in this forum
You cannot delete your posts in this forum
You cannot vote in polls in this forum
You cannot attach files in this forum
You cannot download files in this forum