Today is a free download without charge Download

Однажды преступив черту (Максим Демченко) [2015, Россия, детектив, мелодрама, HDTV 1080i]

Reply to topic
 
Author
Message

Omen ®

Longevity: 8 years 10 months

Posts: 181086

Торрент-статистика

Post 05-Sep-2015 03:19

[Quote]

Однажды преступив черту Страна: Россия
Жанр: Детектив, мелодрама
Год выпуска: 2015
Продолжительность: 01:29:04
Перевод: Не требуется
Cубтитры: нет
Оригинальная аудиодорожка: русский
Режиссер: Максим Демченко
В ролях: Светлана Тимофеева-Летуновская, Михаил Хмуров, Александр Гурбан, Александр Зеленко, Александр Одинец, Александр Тарасов (V), Анжела Кораблёва, Юлия Кудояр
Описание: Людмила Колесникова работает горничной в гостинице. Она давно разведена и живет заботами своего сына Павла, в котором души не чает. Павел занимается спортом, хорошо учится и собирается поступать в медицинский. Так бы и жила эта маленькая небогатая, но очень дружная семья своими тихими радостями, если бы не пришла беда. Однажды на мать и сына нападают хулиганы и жестоко их избивают. Придя в себя в больнице, Людмила узнает, что Павел в коме. Дело ведет талантливый следователь Олег Ершов. Но обезумевшей от горя матери кажется, что полицейские работают недостаточно хорошо и быстро. Людмила решает сама выследить хулиганов. И на отложенные для отпуска деньги покупает пистолет.
Сэмпл
Тип релиза: HDTV 1080i
Контейнер: TS
Видео: MPEG4 Video (AVC) 1920x1080i 25fps ~11.3 Mbps 0.219 bit/pixel
Аудио: MPEG Audio 48000Hz stereo 192kbps

MediaInfo

General
ID : 1 (0x1)
Complete name : D:\#Torrents\Rus_Serials_Films\Однажды преступив черту (2015) HDTV.1080i.by.Черник.Rutracker.ts
Format : MPEG-TS
File size : 7.54 GiB
Duration : 1h 29mn
Overall bit rate mode : Variable
Overall bit rate : 12.1 Mbps
Video
ID : 67 (0x43)
Menu ID : 1 (0x1)
Format : AVC
Format/Info : Advanced Video Codec
Format profile : [email protected]
Format settings, CABAC : Yes
Format settings, ReFrames : 3 frames
Format settings, GOP : M=4, N=28
Codec ID : 27
Duration : 1h 29mn
Bit rate : 11.3 Mbps
Width : 1 920 pixels
Height : 1 080 pixels
Display aspect ratio : 16:9
Frame rate : 25.000 fps
Standard : Component
Color space : YUV
Chroma subsampling : 4:2:0
Bit depth : 8 bits
Scan type : Interlaced
Scan order : Top Field First
Bits/(Pixel*Frame) : 0.219
Stream size : 7.05 GiB (93%)
Color range : Limited
Color primaries : BT.709
Transfer characteristics : BT.709
Matrix coefficients : BT.709
Audio
ID : 68 (0x44)
Menu ID : 1 (0x1)
Format : MPEG Audio
Format version : Version 1
Format profile : Layer 2
Codec ID : 3
Duration : 1h 29mn
Bit rate mode : Constant
Bit rate : 192 Kbps
Channel(s) : 2 channels
Sampling rate : 48.0 KHz
Compression mode : Lossy
Delay relative to video : -120ms
Stream size : 122 MiB (2%)
Language : Russian

Скриншоты

Other forum [Profile] [PM]
Display posts from previous:    
Reply to topic

The time now is: Today 19:25

All times are GMT + 3 Hours



You cannot post new topics in this forum
You cannot reply to topics in this forum
You cannot edit your posts in this forum
You cannot delete your posts in this forum
You cannot vote in polls in this forum
You cannot attach files in this forum
You cannot download files in this forum