Today is a free download without charge Download

Смертельная гонка 2: Франкенштейн жив / Death Race 2 (Роэль Рей / Roel Ray) [2010, ЮАР, фантастика, боевик, триллер, BDRip 1080p] DUB Sub rus + original eng

Reply to topic
 
Author
Message

andrei_spb ®

Gender:

Longevity: 8 years 9 months

Posts: 44

Location: Санкт Петербург

Торрент-статистика

Post 09-Feb-2011 17:02

[Quote]

Смертельная гонка 2: Франкенштейн жив / Death Race 2
Страна: ЮАР
Студия: Moonlighting Films
Жанр: фантастика, боевик, триллер
Год выпуска: 2010
Продолжительность: 01:40:18
Перевод: Профессиональный (дублированный)+ Любительский одноголосый (adrenal_in)
Cубтитры: русские,английские
Оригинальная аудиодорожка: английский
Режиссер: Роэль Рей / Roel Ray
В ролях: Дэнни Трехо, Шон Бин, Винг Рэймс, Лорен Коэн, Люк Госс, Робин Шоу, Танита Феникс, Фредерик Колер, Хосе Ваз, Бёрн Штейнбах
Описание: Действие происходит в ближайшем будущем, когда экономика США начнёт своё снижение и на страну обрушится волна насилия. Чтобы сдержать постоянно растущее уголовное население создаются частные тюрьмы. Худшая из этих тюрем - Терминал Айленд, где заключенным приходится воевать с другими заключенными за свою жизнь в телевизионном шоу.
Тип релиза: BDRip 1080p
Контейнер: MKV
Видео: MPEG-4 AVC, 14.0 Мбит/с, 1920x1080, 23.976 кадр/с
Аудио 1: Russian: 48 kHz, AC3, 3/2 (L,C,R,l,r) + LFE ch, ~384.00 kbps avg(Дубляж)
Аудио 2: Russian: 48 kHz, DTS, 3/2 (L,C,R,l,r) + LFE ch, ~1536.00 kbps avg [adrenal_in]
Аудио 3: English: 48 kHz, DTS, 3/2 (L,C,R,l,r) + LFE ch, ~1536.00 kbps avg

MI

Код:
Полное имя : D:\Торенты\Smertelnaja.gonka.Frankenshtejn.zhiv.2010.x264.BDRip(1080p).mkv
Формат : Matroska
Размер файла : 12,2 Гбайт
Продолжительность : 1 ч. 40 м.
Общий поток : 17,4 Мбит/сек
Дата кодирования : UTC 2011-02-08 15:31:31
Программа кодирования : mkvmerge v4.0.0 ('The Stars were mine') сборка от Jun 6 2010 16:18:42
Библиотека кодирования : libebml v1.0.0 + libmatroska v1.0.0
Видео
Идентификатор : 1
Формат : AVC
Формат/Информация : Advanced Video Codec
Профиль формата : [email protected]
Параметр CABAC формата : Да
Параметр ReFrames формата : 4 кадры
Идентификатор кодека : V_MPEG4/ISO/AVC
Продолжительность : 1 ч. 40 м.
Битрейт : 14,0 Мбит/сек
Ширина : 1920 пикс.
Высота : 1080 пикс.
Соотношение сторон : 16:9
Частота кадров : 23,976 кадр/сек
Цветовое пространство : YUV
Подвыборка цветности : 4:2:0
Битовая глубина : 8 бит
Тип развёртки : Прогрессивная
Бит/(Пиксели*Кадры) : 0.282
Размер потока : 9,58 Гбайт (78%)
Библиотека кодирования : x264 core 107 r1766 f9f0035
Настройки программы : cabac=1 / ref=4 / deblock=1:-3:-3 / analyse=0x3:0x113 / me=umh / subme=10 / psy=1 / psy_rd=1.10:0.15 / mixed_ref=1 / me_range=32 / chroma_me=1 / trellis=2 / 8x8dct=1 / cqm=2 / deadzone=21,11 / fast_pskip=0 / chroma_qp_offset=-2 / threads=12 / sliced_threads=0 / nr=0 / decimate=1 / interlaced=0 / constrained_intra=0 / bframes=6 / b_pyramid=2 / b_adapt=2 / b_bias=0 / direct=3 / weightb=1 / open_gop=0 / weightp=2 / keyint=250 / keyint_min=23 / scenecut=40 / intra_refresh=0 / rc_lookahead=50 / rc=2pass / mbtree=1 / bitrate=14011 / ratetol=1.0 / qcomp=0.70 / qpmin=10 / qpmax=51 / qpstep=4 / cplxblur=20.0 / qblur=0.5 / vbv_maxrate=45000 / vbv_bufsize=40000 / ip_ratio=1.40 / aq=1:0.90 / nal_hrd=none
Язык : English
Аудио #1
Идентификатор : 2
Формат : AC-3
Формат/Информация : Audio Coding 3
Расширение режима : CM (complete main)
Идентификатор кодека : A_AC3
Продолжительность : 1 ч. 40 м.
Вид битрейта : Постоянный
Битрейт : 384 Кбит/сек
Канал(ы) : 6 канала(ов)
Расположение каналов : Front: L C R, Side: L R, LFE
Частота : 48,0 КГц
Битовая глубина : 16 бит
Метод сжатия : С потерями
Размер потока : 276 Мбайт (2%)
Заголовок : Dub
Язык : Russian
Аудио #2
Идентификатор : 3
Формат : DTS
Формат/Информация : Digital Theater Systems
Идентификатор кодека : A_DTS
Продолжительность : 1 ч. 40 м.
Вид битрейта : Постоянный
Битрейт : 1510 Кбит/сек
Канал(ы) : 6 канала(ов)
Расположение каналов : Front: L C R, Side: L R, LFE
Частота : 48,0 КГц
Битовая глубина : 24 бит
Метод сжатия : С потерями
Размер потока : 1,06 Гбайт (9%)
Заголовок : adrenal_in
Язык : Russian
Аудио #3
Идентификатор : 4
Формат : DTS
Формат/Информация : Digital Theater Systems
Идентификатор кодека : A_DTS
Продолжительность : 1 ч. 40 м.
Вид битрейта : Постоянный
Битрейт : 1510 Кбит/сек
Канал(ы) : 6 канала(ов)
Расположение каналов : Front: L C R, Side: L R, LFE
Частота : 48,0 КГц
Битовая глубина : 24 бит
Метод сжатия : С потерями
Размер потока : 1,06 Гбайт (9%)
Язык : English
Текст #1
Идентификатор : 5
Формат : UTF-8
Идентификатор кодека : S_TEXT/UTF8
Идентификатор кодека/Информация : UTF-8 Plain Text
Язык : Russian
Текст #2
Идентификатор : 6
Формат : UTF-8
Идентификатор кодека : S_TEXT/UTF8
Идентификатор кодека/Информация : UTF-8 Plain Text
Язык : English

Скриншоты

   

_________________
8мб/c 10мб/c 24/7


Last edited by andrei_spb on 2011-02-09 19:24; edited 1 time in total
Other forum [Profile] [PM]
Similar theme
Forum Topic Author Torrent Replies Last Post
./templates/default/images/folder_dl.gif Фантастика, фэнтези, ужасы, мистика Ливадный Андрей - Зона смерти : ЧЕРНАЯ ПУСТОШЬ [Дмитрий Хазанович (Дим Димыч)(ЛИ) , 2011 г., 192kbps, MP3] Omen
1 | 0

0 | 1061

5

2011-12-01 21:26
Omen Latest
./templates/default/images/folder_dl.gif Фантастика, фэнтези, ужасы, мистика Ливадный Андрей - Зона смерти: СТАЛТЕХ [Дим Димыч(ЛИ), 2011 г., 192 kbps, MP3] Omen
1 | 0

0 | 515

1

2012-11-03 22:12
Omen Latest
./templates/default/images/folder_dl.gif Антология зарубежного кино Жажда смерти [Пенталогия] / Death Wish [Pentalogy] (Майкл Уиннер, Дж. Ли Томпсон, Аллан Голдштейн) [1974–1993, боевик, триллер, DVDRip] MVO, AVO, VO O.S.A.
1 | 0

1 | 2546

1

2015-11-13 22:52
O.S.A. Latest
./templates/default/images/folder_dl.gif Новинки (CamRip|TS) Бегущий в лабиринте: Лекарство от смерти / Maze Runner: The Death Cure (Уэс Болл) [2018 г., фантастика, боевик, триллер, TS] DUB Theseus
1 | 0

2 | 3712

15

2018-02-09 22:54
Theseus Latest
Display posts from previous:    
Reply to topic

The time now is: Today 18:17

All times are GMT + 3 Hours



You cannot post new topics in this forum
You cannot reply to topics in this forum
You cannot edit your posts in this forum
You cannot delete your posts in this forum
You cannot vote in polls in this forum
You cannot attach files in this forum
You cannot download files in this forum