Today is a free download without charge Download

Сокровище Амазонки / The Rundown (Питер Берг) [2003 г., боевик, триллер, комедия, приключения, BDRip 1080p]

Reply to topic
 
Author
Message

Delia ®

Gender:

Longevity: 11 years

Posts: 1821

Торрент-статистика

Post 01-Jun-2012 10:07

[Quote]

Сокровище Амазонки / The Rundown«Присоединяйся к поискам!»--
Год выпуска: 2003
Страна: США
Жанр: боевик, триллер, комедия, приключения, ...
Продолжительность: 01:44:15
Перевод: Профессиональный (дублированный)
Субтитры: Russian , English (srt)
Режиссер: Питер Берг
Сценарий: Р.Дж. Стюарт, Джеймс Вандербилт
Продюсер: Марк Абрахам, Билл Корлесс, Карен Глассер, ...
Оператор: Тобиас Э. Шлисслер
Композитор: Гарри Грегсон-Уильямс
Художник: Том Даффилд, Марко Рубео, Патрик М. Салливан мл., ...
Монтаж: Ричард Пирсон- В ролях: Дуэйн Джонсон (Dwayne Johnson), Шонн Уильям Скотт (Seann William Scott), Розарио Доусон (Rosario Dawson), Кристофер Уокен (Christopher Walken), Юэн Бремнер (Ewen Bremner), Джон Гриз (Jon Gries), Уильям Лаккинг (William Lucking), Эрни Рейес мл. (Ernie Reyes Jr.), Стюарт Ф. Уилсон (Stuart F. Wilson), Дэннис Кейффер (Dennis Keiffer), Гаррет Уоррен (Garrett Warren), Тоби Холгин (Toby Holguin), Пол С. Пауэр (Paul S. Power), Стефен Бишоп (Stephen Bishop), Чак Норман (Chuck Norman), Джамал Дафф (Jamal Duff), Джон Дафф (John Duff), Джефф Чейз (Jeff Chase), Джексон Прайс (Jackson Price), Энтони Диаз-Перез (Anthony Diaz-Perez)
Описание: Если поступило предложение, от которого нельзя отказаться, — вот и не отказывайся! В качестве расплаты с долгом перед мафией интеллигентному громиле Беку предлагается отправиться в джунгли Амазонки и доставить домой затерявшегося где-то там афериста Трэвиса, блудного сына «крестного отца». Вот только прибыв на место, герой обнаруживает, что шансов доставить свой груз не по частям у него маловато. Непутевый Трэвис перешел дорожку местному авторитету Хэтчеру, начав охоту за легендарным золотым идолом индейцев, на который тот давно мечтал наложить лапу. Беку не остается иного выбора, как призвать на помощь свои незаурядное чувство юмора, стальные мускулы и вступить в сумасшедшую гонку за сокровищем, пока его «клиента» не скормили ягуарам!..-Рейтинг MPAA: -- --Качество: BDRip
Формат: MKV
Видео кодек: H.264 (AVC)
Аудио кодеk: AC3
Видео: 1920x816 (2.35:1), 23.976 fps, AVC, 5 555 Kbps
Аудио: AC3, 448 Kbps, 48.0 KHz, 6 ch
Отдельно на народ.ру:
448 Кбит/сек, 48,0 КГц, 16 бит, 6 каналов, AC-3 | Одноголосый закадровый, Ю.Живов
448 Кбит/сек, 48,0 КГц, 16 бит, 6 каналов, AC-3 | оригинал

МедиаИнфо

Код:
General
Complete name                    : The.Rundown.2003.BDRip-F.HD.mkv
Format                           : Matroska
File size                        : 4.36 GiB
Duration                         : 1h 44mn
Overall bit rate                 : 5 993 Kbps
Encoded date                     : UTC 2012-06-01 05:37:10
Writing application              : mkvmerge v5.4.0 ('Piper') built on Mar 10 2012 13:34:39
Writing library                  : libebml v1.2.3 + libmatroska v1.3.0
Video
ID                               : 1
Format                           : AVC
Format/Info                      : Advanced Video Codec
Format profile                   : [email protected]
Format settings, CABAC           : Yes
Format settings, ReFrames        : 5 frames
Muxing mode                      : Container [email protected]
Codec ID                         : V_MPEG4/ISO/AVC
Duration                         : 1h 44mn
Bit rate                         : 5 555 Kbps
Width                            : 1 920 pixels
Height                           : 816 pixels
Display aspect ratio             : 2.35:1
Frame rate                       : 23.976 fps
Color space                      : YUV
Chroma subsampling               : 4:2:0
Bit depth                        : 8 bits
Scan type                        : Progressive
Bits/(Pixel*Frame)               : 0.148
Stream size                      : 3.95 GiB (91%)
Writing library                  : x264 core 122 r2184 5c85e0a
Encoding settings                : cabac=1 / ref=5 / deblock=1:-2:-2 / analyse=0x3:0x113 / me=umh / subme=10 / psy=1 / psy_rd=0.90:0.10 / mixed_ref=1 / me_range=48 / chroma_me=1 / trellis=2 / 8x8dct=1 / cqm=0 / deadzone=21,11 / fast_pskip=0 / chroma_qp_offset=-3 / threads=6 / sliced_threads=0 / nr=0 / decimate=1 / interlaced=0 / bluray_compat=0 / constrained_intra=0 / bframes=7 / b_pyramid=2 / b_adapt=2 / b_bias=0 / direct=3 / weightb=0 / open_gop=0 / weightp=2 / keyint=240 / keyint_min=23 / scenecut=40 / intra_refresh=0 / rc=2pass / mbtree=0 / bitrate=5555 / ratetol=1.0 / qcomp=0.70 / qpmin=0 / qpmax=69 / qpstep=4 / cplxblur=20.0 / qblur=0.5 / ip_ratio=1.40 / pb_ratio=1.20 / aq=2:0.90
Color primaries                  : BT.709-5, BT.1361, IEC 61966-2-4, SMPTE RP177
Transfer characteristics         : BT.709-5, BT.1361
Matrix coefficients              : BT.709-5, BT.1361, IEC 61966-2-4 709, SMPTE RP177
Audio
ID                               : 2
Format                           : AC-3
Format/Info                      : Audio Coding 3
Mode extension                   : CM (complete main)
Codec ID                         : A_AC3
Duration                         : 1h 44mn
Bit rate mode                    : Constant
Bit rate                         : 448 Kbps
Channel(s)                       : 6 channels
Channel positions                : Front: L C R, Side: L R, LFE
Sampling rate                    : 48.0 KHz
Bit depth                        : 16 bits
Stream size                      : 334 MiB (7%)
Language                         : Russian
Text #1
ID                               : 3
Format                           : UTF-8
Codec ID                         : S_TEXT/UTF8
Codec ID/Info                    : UTF-8 Plain Text
Language                         : Russian
Text #2
ID                               : 4
Format                           : UTF-8
Codec ID                         : S_TEXT/UTF8
Codec ID/Info                    : UTF-8 Plain Text


Скриншоты

     
     

_________________
Человек – это канат, натянутый между животным и сверхчеловеком, – канат над пропастью.
В человеке ценно то, что он мост, а не цель. Фридрих Ницше
Other forum [Profile] [PM]
Display posts from previous:    
Reply to topic

The time now is: Today 20:05

All times are GMT + 3 Hours



You cannot post new topics in this forum
You cannot reply to topics in this forum
You cannot edit your posts in this forum
You cannot delete your posts in this forum
You cannot vote in polls in this forum
You cannot attach files in this forum
You cannot download files in this forum