Today is a free download without charge Download

Шальные деньги / Snabba Cash (Дэниэл Эспиноза / Daniel Espinoza) [2010, Швеция, криминал, драма, триллер, BDRip 720p] DVO (R5) + DVO студия Elrom + AVO zamez Sub Rus, Eng + Original Swe

Reply to topic
 
Author
Message

Delia ®

Gender:

Longevity: 10 years

Posts: 1821

Торрент-статистика

Post 31-May-2012 15:15

[Quote]

Шальные деньги / Snabba Cash--
Год выпуска: 2010
Страна: Швеция
Жанр: триллер, драма, криминал
Продолжительность: 02:04:14
Перевод: Профессиональный (двухголосый закадровый)
Субтитры: Russian (R5), Russian (ненорматив), Ehglish (srt)
Режиссер: Дэниэл Эспиноза
Сценарий: Мария Карлссон, Hassan Loo Sattarvandi, Фредерик Викстрем, ...
Продюсер: Фредерик Викстрем, Джессика Аск, Фрэнк Бонн, ...
Оператор: Ариль Вретблад
Композитор: Jon Ekstrand
Художник: Роджер Розенберг, Денис Ёстхолм
Монтаж: Тейс Шмидт- В ролях: Юэль Киннаман (Joel Kinnaman), Матиас Падин (Matias Varela), Dragomir Mrsic, Лиза Хенни (Lisa Henni), Mahmut Suvakci, Джонс Данко (Jones Danko), Lea Stojanov, Деян Чукич (Dejan Cukic), Миодраг Стоянович (Miodrag Stojanovic), Джоэль Спира (Joel Spira), Christian Hillborg, Annika Ryberg Whittembury, Фарес Фарес (Fares Fares), Hamdisa Causevic, Александр Петрович (Sasa Petrovic), Alexander Silfverskiold, Александр Стокс (Alexander Stocks), Камило Эланис (Camilo Alanis), Jurgen Uter, Годехард Гиезе (Godehard Giese)
Описание: Стокгольмский таксист, решивший подработать, соглашается на предложение своего босса начать торговать кокаином. Постепенно в дело оказываются замешаны югославская мафия, сбежавший из тюрьмы латиноамериканец, на эту мафию работавший, и серб, мечтающий покончить с криминальной жизнью.-Рейтинг MPAA: -- --Качество: BDRip
Формат: MKV
Видео кодек: H.264 (AVC)
Аудио кодеk: AC3
Видео: 1280x544 (2.35:1), 24.000 fps, AVC, 7 241 Kbps
Аудио: AC3, 448 Kbps, 48.0 KHz, 6 ch, (двухголосый закадровый) R5
Аудио #2: AC3, 384 Kbps, 48.0 KHz, 6 ch, (двухголосый закадровый) студия Elrom
Аудио #3: AC3, 448 Kbps, 48.0 KHz, 6 ch, Авторский (одноголосый закадровый) zamez
Аудио #4: AC3, 640 Kbps, 48.0 KHz, 6 ch, Swedish

МедиаИнфо

Код:
General
Complete name                    : Snabba Cash(2010)BDRip.mkv
Format                           : Matroska
File size                        : 7.95 GiB
Duration                         : 2h 4mn
Overall bit rate                 : 9 158 Kbps
Encoded date                     : UTC 2012-05-31 10:32:48
Writing application              : mkvmerge v5.4.0 ('Piper') built on Mar 10 2012 13:34:39
Writing library                  : libebml v1.2.3 + libmatroska v1.3.0
Video
ID                               : 1
Format                           : AVC
Format/Info                      : Advanced Video Codec
Format profile                   : [email protected]
Format settings, CABAC           : Yes
Format settings, ReFrames        : 9 frames
Muxing mode                      : Container [email protected]
Codec ID                         : V_MPEG4/ISO/AVC
Duration                         : 2h 4mn
Bit rate                         : 7 241 Kbps
Width                            : 1 280 pixels
Height                           : 544 pixels
Display aspect ratio             : 2.35:1
Frame rate                       : 24.000 fps
Color space                      : YUV
Chroma subsampling               : 4:2:0
Bit depth                        : 8 bits
Scan type                        : Progressive
Bits/(Pixel*Frame)               : 0.433
Stream size                      : 6.12 GiB (77%)
Writing library                  : x264 core 122 r2184 5c85e0a
Encoding settings                : cabac=1 / ref=9 / deblock=1:-2:-2 / analyse=0x3:0x113 / me=umh / subme=10 / psy=1 / psy_rd=1.00:0.10 / mixed_ref=1 / me_range=48 / chroma_me=1 / trellis=2 / 8x8dct=1 / cqm=0 / deadzone=21,11 / fast_pskip=0 / chroma_qp_offset=-3 / threads=6 / sliced_threads=0 / nr=0 / decimate=1 / interlaced=0 / bluray_compat=0 / constrained_intra=0 / bframes=8 / b_pyramid=2 / b_adapt=2 / b_bias=0 / direct=3 / weightb=1 / open_gop=0 / weightp=2 / keyint=240 / keyint_min=24 / scenecut=40 / intra_refresh=0 / rc=2pass / mbtree=0 / bitrate=7241 / ratetol=1.0 / qcomp=0.70 / qpmin=0 / qpmax=69 / qpstep=4 / cplxblur=20.0 / qblur=0.5 / ip_ratio=1.40 / pb_ratio=1.30 / aq=2:0.90
Color primaries                  : BT.709-5, BT.1361, IEC 61966-2-4, SMPTE RP177
Transfer characteristics         : BT.709-5, BT.1361
Matrix coefficients              : BT.709-5, BT.1361, IEC 61966-2-4 709, SMPTE RP177
Audio #1
ID                               : 2
Format                           : AC-3
Format/Info                      : Audio Coding 3
Mode extension                   : CM (complete main)
Codec ID                         : A_AC3
Duration                         : 2h 4mn
Bit rate mode                    : Constant
Bit rate                         : 448 Kbps
Channel(s)                       : 6 channels
Channel positions                : Front: L C R, Side: L R, LFE
Sampling rate                    : 48.0 KHz
Bit depth                        : 16 bits
Stream size                      : 398 MiB (5%)
Title                            : R5
Language                         : Russian
Audio #2
ID                               : 3
Format                           : AC-3
Format/Info                      : Audio Coding 3
Mode extension                   : CM (complete main)
Codec ID                         : A_AC3
Duration                         : 2h 4mn
Bit rate mode                    : Constant
Bit rate                         : 384 Kbps
Channel(s)                       : 6 channels
Channel positions                : Front: L C R, Side: L R, LFE
Sampling rate                    : 48.0 KHz
Bit depth                        : 16 bits
Stream size                      : 341 MiB (4%)
Title                            : Elrom
Language                         : Russian
Audio #3
ID                               : 4
Format                           : AC-3
Format/Info                      : Audio Coding 3
Mode extension                   : CM (complete main)
Codec ID                         : A_AC3
Duration                         : 2h 4mn
Bit rate mode                    : Constant
Bit rate                         : 448 Kbps
Channel(s)                       : 6 channels
Channel positions                : Front: L C R, Side: L R, LFE
Sampling rate                    : 48.0 KHz
Bit depth                        : 16 bits
Stream size                      : 398 MiB (5%)
Title                            : zamez
Language                         : Russian
Audio #4
ID                               : 5
Format                           : AC-3
Format/Info                      : Audio Coding 3
Mode extension                   : CM (complete main)
Codec ID                         : A_AC3
Duration                         : 2h 4mn
Bit rate mode                    : Constant
Bit rate                         : 640 Kbps
Channel(s)                       : 6 channels
Channel positions                : Front: L C R, Side: L R, LFE
Sampling rate                    : 48.0 KHz
Bit depth                        : 16 bits
Stream size                      : 569 MiB (7%)
Language                         : Swedish
Text #1
ID                               : 6
Format                           : UTF-8
Codec ID                         : S_TEXT/UTF8
Codec ID/Info                    : UTF-8 Plain Text
Title                            : R5
Language                         : Russian
Text #2
ID                               : 7
Format                           : UTF-8
Codec ID                         : S_TEXT/UTF8
Codec ID/Info                    : UTF-8 Plain Text
Language                         : Russian
Text #3
ID                               : 8
Format                           : UTF-8
Codec ID                         : S_TEXT/UTF8
Codec ID/Info                    : UTF-8 Plain Text
Menu
00:00:00.000                     : en:Chapter 01
00:05:00.000                     : en:Chapter 02
00:10:00.000                     : en:Chapter 03
00:15:00.000                     : en:Chapter 04
00:20:00.000                     : en:Chapter 05
00:25:00.000                     : en:Chapter 06
00:30:00.000                     : en:Chapter 07
00:35:00.000                     : en:Chapter 08
00:40:00.000                     : en:Chapter 09
00:45:00.000                     : en:Chapter 10
00:50:00.000                     : en:Chapter 11
00:55:00.000                     : en:Chapter 12
01:00:00.000                     : en:Chapter 13
01:05:00.000                     : en:Chapter 14
01:10:00.000                     : en:Chapter 15
01:15:00.000                     : en:Chapter 16
01:20:00.000                     : en:Chapter 17
01:25:00.000                     : en:Chapter 18
01:30:00.000                     : en:Chapter 19
01:35:00.000                     : en:Chapter 20
01:40:00.000                     : en:Chapter 21
01:45:00.000                     : en:Chapter 22
01:50:00.000                     : en:Chapter 23
01:55:00.000                     : en:Chapter 24
02:00:00.000                     : en:Chapter 25


Скриншоты

     
     

_________________
Человек – это канат, натянутый между животным и сверхчеловеком, – канат над пропастью.
В человеке ценно то, что он мост, а не цель. Фридрих Ницше
Other forum [Profile] [PM]
Display posts from previous:    
Reply to topic

The time now is: Today 04:26

All times are GMT + 3 Hours



You cannot post new topics in this forum
You cannot reply to topics in this forum
You cannot edit your posts in this forum
You cannot delete your posts in this forum
You cannot vote in polls in this forum
You cannot attach files in this forum
You cannot download files in this forum