Today is a free download without charge Download

Назад в будущее: Трилогия / Back to the Future Trilogy (Роберт Земекис / Robert Zemeckis) [1985/1989/1990 г., фантастика, боевик, комедия, приключения, семейный, вестерн BDRip 1080p] [25th Anniversary Edition] DUB + AVO + MVO + Sub Rus + Original Eng

Reply to topic
 
Author
Message

Hancock ®

Gender:

Longevity: 9 years

Posts: 73

Торрент-статистика

Post 31-May-2012 12:52

[Quote]

Назад в будущее: Трилогия / Back to the Future Trilogy- ---Назад в будущее / Back To The Future- Страна: США
Студия: Universal Pictures
Жанр: фантастика, боевик, комедия, приключения, семейный
Год выпуска: 1985
Продолжительность: 01:56:05
Слоган: «Семнадцатилетний Марти МакФлай пришел вчера домой пораньше. На 30 лет раньше. »
Перевод#1: Профессиональный (дублированный) Пифагор
Перевод#2: Гаврилов Андрей (ранний)
Перевод#3: Гаврилов Андрей (поздний)
Перевод#4: Михалёв Алексей
Перевод#5: Горчаков Василий
Перевод#6: Дубровин Владимир
Перевод#7: Неизвестный [неполный] [исправленный]
Перевод#8: Переговорщик Гаврилова-раннего
Перевод#9: Гланц Пётр+Лютая Евгения (псевдо-дубляж)
Перевод#10: Тарадайкин Игорь+Германова Любовь [Премьер-видео]
Перевод#11: Стрелков Станислав+Божок Татьяна [Киномания] [DDV] [Biz video]
Перевод#12: Стрелков Станислав+Зотов Константин+Женщина [FDV]
Перевод#13: Карусель
Перевод#14: Андреев Вадим+Гнилова Людмила [НТВ=СТС]
Перевод#15: Форостенко Олег+Филимонов Дмитрий+Казанцев Андрей+Никонова Жанна [ОРТ]
Перевод#16: Телеканал 1+1
Перевод#17: Новый канал
Перевод#18: Переговорщик 2 Гаврилова-раннего
Cубтитры: русские, английские
Оригинальная аудиодорожка: английский
Режиссер: Роберт Земекис / Robert Zemeckis
Сценарий: Роберт Земекис / Robert Zemeckis, Боб Гэйл / Bob Gale
Продюсер: Нил Кэнтон / Neil Canton, Боб Гэйл / Bob Gale, Кэтлин Кеннеди / Kathleen Kennedy, Фрэнк Маршалл / Frank Marshall, Стивен Спилберг / Steven Spielberg
Оператор: Дин Канди / Dean Cundey
Композитор: Алан Сильвестри / Alan Silvestri
В ролях: Майкл Дж. Фокс (Marty McFly), Кристофер Ллойд (Dr. Emmett Brown), Лиа Томпсон (Lorraine Baines), Криспин Гловер (George McFly), Томас Ф. Уилсон (Biff Tannen), Клодия Уэллс (Jennifer Parker), Марк МакКлюр (Dave McFly), Уэнди Джо Спербер (Linda McFly), Джордж ДиЧенцо (Sam Baines), Фрэнсис Ли МакКейн (Stella Baines), Джеймс Толкан (Mr. Strickland), Дж.Дж. Коэн (Skinhead)-Бюджет: $19 000 000
Сборы в США: $210 609 762
Сборы в мире: $381 109 762
Мировая премьера: 3 июля 1985
Релиз на Blu-ray: 2 ноября 2010, «Юниверсал Пикчерс Рус»-Описание: Подросток Марти с помощью машины времени, сооруженной его другом профессором доком Брауном, попадает из 80-х в далекие 50-е. Там он встречается со своими будущими родителями, еще подростками, и другом-профессором, совсем молодым.
Он нарушает естественный ход событий прошлого, чем вызывает массу смешных и драматических ситуаций. Собственная смекалка и фантазия профессора помогают преодолеть все препятствия и благополучно вернуться к себе, в свое время.-
MPAA: - Рекомендуется присутствие родителей-Качество: BDRip 1080p (CHD)
Формат: Matroska-Видео: AVC; 1920x1040 (16:9); 15533 Kbps; 23.976 fps; 0.324 bpp
Аудио 1: DTS / 5.1 / 48 kHz / 768 kbps / 24-bit - Русский - Дубляж с лицензии - в составе матрёшки
Аудио 2: DTS / 5.1 / 48 kHz / 1536 kbps / 24-bit - Русский - Гаврилов Андрей (ранний) - в составе матрёшки
Аудио 3: DTS / 5.1 / 48 kHz / 1536 kbps / 24-bit - Русский - Гаврилов Андрей (поздний) - отдельным файлом
Аудио 4: DTS / 5.1 / 48 kHz / 1536 kbps / 24-bit - Русский - Михалёв Алексей - отдельным файлом
Аудио 5: DTS / 5.1 / 48 kHz / 1536 kbps / 24-bit - Русский - Горчаков Василий - отдельным файлом
Аудио 6: DTS / 5.1 / 48 kHz / 1536 kbps / 24-bit - Русский - Дубровин Владимир - отдельным файлом
Аудио 7: DTS / 5.1 / 48 kHz / 1536 kbps / 24-bit - Русский - Неизвестный [неполный] - отдельным файлом
Аудио 8: DTS / 5.1 / 48 kHz / 1536 kbps / 24-bit - Русский - Переговорщик Гаврилова-раннего - отдельным файлом
Аудио 9: DTS / 5.1 / 48 kHz / 1536 kbps / 24-bit - Русский - Гланц Пётр+Лютая Евгения (псевдо-дубляж) - отдельным файлом
Аудио 10: DTS / 5.1 / 48 kHz / 1536 kbps / 24-bit - Русский - Тарадайкин Игорь+Германова Любовь [Премьер-видео] - отдельным файлом
Аудио 11: DTS / 5.1 / 48 kHz / 1536 kbps / 24-bit - Русский - Стрелков Станислав+Божок Татьяна [Киномания] [DDV] [Biz video] - отдельным файлом
Аудио 12: DTS / 5.1 / 48 kHz / 1536 kbps / 24-bit - Русский - Стрелков Станислав+Зотов Константин+Женщина [FDV] - отдельным файлом
Аудио 13: DTS / 5.1 / 48 kHz / 1536 kbps / 24-bit - Русский - Карусель - отдельным файлом
Аудио 14: DTS / 5.1 / 48 kHz / 1536 kbps / 24-bit - Русский - Андреев Вадим+Гнилова Людмила [НТВ=СТС] - отдельным файлом
Аудио 15: DTS / 5.1 / 48 kHz / 1536 kbps / 24-bit - Русский - Форостенко Олег+Филимонов Дмитрий+Казанцев Андрей+Никонова Жанна [ОРТ] - отдельным файлом
Аудио 16: DTS / 5.1 / 48 kHz / 1536 kbps / 24-bit - Украинский - Телеканал 1+1 - отдельным файлом
Аудио 17: DTS / 5.1 / 48 kHz / 1536 kbps / 24-bit - Украинский - Новый канал - отдельным файлом
Аудио 18: DTS / 5.1 / 48 kHz / 1536 kbps / 24-bit - Русский - Переговорщик Гаврилова-раннего 2 - отдельным файлом
Аудио 19: DTS / 5.1 / 48 kHz / 1536 kbps / 24-bit - Английский - оригинальный - в составе матрёшки
Все DTS дороги получены выделением ядра из DTS-HD MA треков из раздачи RoxMarty
Аудио 20: AC3 / 48 kHz / 192 kbps / 2ch - Английский - Q&A Commentaries with Director Robert Zemeckis and Producer Bob Gale - отдельным файлом
Аудио 21: AC3 / 48 kHz / 192 kbps / 2ch - Английский - Feature Commentaries with Producers Bob Gale and Neil Canton - отдельным файлом
Аудио 22: AC3 / 48 kHz / 256 kbps / 2ch - Русский -( RoxMarty )- Комментарии режиссёра Роберта Земекиса и продюсера Боба Гейла - в составе матрёшки
Аудио 23: AC3 / 48 kHz / 256 kbps / 2ch - Русский -( RoxMarty )- Комментарии продюсеров Боба Гейла и Нила Кэнтона - в составе матрёшки
Субтитры №1: Russian
Субтитры №2: English
Субтитры №3: Russian - субтитры к аудиокомментариям Роберта Земекиса и Боба Гейла
Субтитры №4: Russian - субтитры к аудиокомментариям Боба Гейла и Нила Кэнтона
Субтитры №5: English - Q&A Commentaries with Director Robert Zemeckis and Producer Bob Gale
Субтитры №6: English - Feature Commentaries with Producers Bob Gale and Neil Canton
Субтитры №7: Russian - на надписи
Субтитры №8: Russian - на интерактив, отдельным файлом

MediaInfo

General
Complete name : J:\BTTF\BTTF1\Back.To.The.Future.1.1080p.BDRip.CHD.mkv
Format : Matroska
File size : 16.4 GiB
Duration : 1h 56mn
Overall bit rate : 20.2 Mbps
Encoded date : UTC 2010-12-06 21:54:25
Writing application : mkvmerge v3.4.0 ('Rapunzel') сборка от May 15 2010 09:38:20
Writing library : libebml v0.8.0 + libmatroska v0.9.0
Video
ID : 1
Format : AVC
Format/Info : Advanced Video Codec
Format profile : [email protected]
Format settings, CABAC : Yes
Format settings, ReFrames : 4 frames
Muxing mode : Container [email protected]
Codec ID : V_MPEG4/ISO/AVC
Duration : 1h 55mn
Bit rate : 15.5 Mbps
Nominal bit rate : 15.9 Mbps
Width : 1 920 pixels
Height : 1 040 pixels
Display aspect ratio : 16:9
Frame rate : 23.976 fps
Resolution : 24 bits
Colorimetry : 4:2:0
Scan type : Progressive
Bits/(Pixel*Frame) : 0.325
Stream size : 12.6 GiB (77%)
Writing library : x264 core 102 r1666 d058f37
Encoding settings : cabac=1 / ref=4 / deblock=1:-3:-3 / analyse=0x3:0x113 / me=umh / subme=10 / psy=1 / psy_rd=1.05:0.10 / mixed_ref=1 / me_range=48 / chroma_me=1 / trellis=2 / 8x8dct=1 / cqm=2 / deadzone=21,11 / fast_pskip=0 / chroma_qp_offset=-2 / threads=12 / sliced_threads=0 / nr=0 / decimate=1 / interlaced=0 / constrained_intra=0 / bframes=8 / b_pyramid=2 / b_adapt=2 / b_bias=0 / direct=3 / weightb=1 / open_gop=0 / weightp=2 / keyint=250 / keyint_min=25 / scenecut=40 / intra_refresh=0 / rc_lookahead=50 / rc=2pass / mbtree=1 / bitrate=15923 / ratetol=2.0 / qcomp=0.70 / qpmin=10 / qpmax=51 / qpstep=4 / cplxblur=20.0 / qblur=0.5 / vbv_maxrate=50000 / vbv_bufsize=50000 / ip_ratio=1.40 / aq=1:1.00 / nal_hrd=none
Language : English
Audio #1
ID : 2
Format : DTS
Format/Info : Digital Theater Systems
Codec ID : A_DTS
Duration : 1h 56mn
Bit rate mode : Constant
Bit rate : 755 Kbps
Channel(s) : 6 channels
Channel positions : Front: L C R, Surround: L R, LFE
Sampling rate : 48.0 KHz
Resolution : 24 bits
Stream size : 627 MiB (4%)
Title : DTS CEE Dubl
Language : Russian
Audio #2
ID : 3
Format : DTS
Format/Info : Digital Theater Systems
Codec ID : A_DTS
Duration : 1h 56mn
Bit rate mode : Constant
Bit rate : 1 510 Kbps
Channel(s) : 6 channels
Channel positions : Front: L C R, Surround: L R, LFE
Sampling rate : 48.0 KHz
Resolution : 24 bits
Stream size : 1.22 GiB (7%)
Title : DTS core AVO Gavrilov ear
Language : Russian
Audio #3
ID : 4
Format : DTS
Format/Info : Digital Theater Systems
Codec ID : A_DTS
Duration : 1h 56mn
Bit rate mode : Constant
Bit rate : 1 510 Kbps
Channel(s) : 6 channels
Channel positions : Front: L C R, Surround: L R, LFE
Sampling rate : 48.0 KHz
Resolution : 24 bits
Stream size : 1.22 GiB (7%)
Title : DTSHD core Eng
Language : English
Audio #4
ID : 5
Format : AC-3
Format/Info : Audio Coding 3
Codec ID : A_AC3
Duration : 1h 56mn
Bit rate mode : Constant
Bit rate : 256 Kbps
Channel(s) : 2 channels
Channel positions : L R
Sampling rate : 48.0 KHz
Stream size : 213 MiB (1%)
Title : AC3 Q&A Comments with Director
Language : Russian
Audio #5
ID : 6
Format : AC-3
Format/Info : Audio Coding 3
Codec ID : A_AC3
Duration : 1h 56mn
Bit rate mode : Constant
Bit rate : 256 Kbps
Channel(s) : 2 channels
Channel positions : L R
Sampling rate : 48.0 KHz
Stream size : 213 MiB (1%)
Title : AC3 Comments with Producers
Language : Russian
Text #1
ID : 7
Format : UTF-8
Codec ID : S_TEXT/UTF8
Codec ID/Info : UTF-8 Plain Text
Title : SUB Rus
Language : Russian
Text #2
ID : 8
Format : UTF-8
Codec ID : S_TEXT/UTF8
Codec ID/Info : UTF-8 Plain Text
Title : SUB Eng
Language : English
Text #3
ID : 9
Format : UTF-8
Codec ID : S_TEXT/UTF8
Codec ID/Info : UTF-8 Plain Text
Title : SUB Rus Q&A Comments with Director
Language : Russian
Text #4
ID : 10
Format : UTF-8
Codec ID : S_TEXT/UTF8
Codec ID/Info : UTF-8 Plain Text
Title : SUB Rus Comments with Producers
Language : Russian
Text #5
ID : 11
Format : UTF-8
Codec ID : S_TEXT/UTF8
Codec ID/Info : UTF-8 Plain Text
Title : SUB Eng Q&A Comments with Director
Language : English
Text #6
ID : 12
Format : UTF-8
Codec ID : S_TEXT/UTF8
Codec ID/Info : UTF-8 Plain Text
Title : SUB Eng Comments with Producers
Language : English
Text #7
ID : 13
Format : UTF-8
Codec ID : S_TEXT/UTF8
Codec ID/Info : UTF-8 Plain Text
Title : Sub forced
Language : Russian

Скриншоты

     
-Назад в будущее 2 / Back to the Future Part II- Страна: США
Студия: Universal Pictures
Жанр: фантастика, боевик, комедия, приключения, семейный
Год выпуска: 1989
Продолжительность: 01:48:05
Слоган: «Все это о времени»
Перевод#1: Профессиональный (дублированный) Пифагор
Перевод#2: Гаврилов Андрей (ранний)
Перевод#3: Гаврилов Андрей (поздний)
Перевод#4: Михалёв Алексей
Перевод#5: Санаев Павел
Перевод#6: Петербуржец
Перевод#7: Горчаков Василий
Перевод#8: Живов Юрий
Перевод#9: Дубровин Владимир
Перевод#10: Переговорщик Санаева
Перевод#11: Гланц Пётр+Лютая Евгения (псевдо-дубляж)
Перевод#12: Тарадайкин Игорь+Германова Любовь [Премьер-видео]
Перевод#13: Стрелков Станислав+Божок Татьяна [Киномания] [DDV] [Biz video]
Перевод#14: Карусель
Перевод#15: Андреев Вадим+Гнилова Людмила [НТВ=СТС]
Перевод#16: Стрелков Станислав+Зотов Константин+Женщина [FDV]
Перевод#17: Форостенко Олег+Филимонов Дмитрий+Казанцев Андрей+Никонова Жанна [ОРТ]
Перевод#18: Телеканал 1+1
Перевод#19: Новый канал
Перевод#20: ICTV
Cубтитры: русские, английские
Оригинальная аудиодорожка: английский
Режиссер: Роберт Земекис / Robert Zemeckis
Сценарий: Роберт Земекис / Robert Zemeckis, Боб Гэйл / Bob Gale
Продюсер: Нил Кэнтон / Neil Canton, Боб Гэйл / Bob Gale, Кэтлин Кеннеди / Kathleen Kennedy, Фрэнк Маршалл / Frank Marshall, Стивен Спилберг / Steven Spielberg
Оператор: Дин Канди / Dean Cundey
Композитор: Алан Сильвестри / Alan Silvestri
В ролях: Майкл Дж. Фокс (Marty McFly / Marty McFly Jr / Marlene McFly), Кристофер Ллойд (Dr. Emmett Brown), Лиа Томпсон (Lorraine), Томас Ф. Уилсон (Biff Tannen / Griff Tannen), Элизабет Шу (Jennifer Parker / Jennifer McFly), Джеймс Толкан (Mr. Strickland), Джеффри Вайсман (George McFly), Кэйси Семашко (3-D), Билли Зейн (Match), Дж.Дж. Коэн (Skinhead), Чарльз Флайшер (Terry), Э. Казанова Эванс ('Michael Jackson' Video Waiter)-Бюджет: $40 000 000
Сборы в США: $118 450 002
Сборы в мире: $331 950 002
Мировая премьера: 20 ноября 1989-Описание: Продолжение фантастической истории о приключениях американского подростка во времени. На этот раз с помощью модернизированной Доком машины времени Марти из 80-х попадает в будущее.
Дети Марти в беде, и их надо выручать. Приходится повозиться со злодеем…-
MPAA: - Рекомендуется присутствие родителей-Качество: BDRip 1080p (CHD)
Формат: Matroska-Видео: 1920x1040p / 23,976 fps / 16:9 / 11,3 Mbps / Bits/(Pixel*Frame) : 0.228 bpp
Аудио 1: DTS / 5.1 / 48 kHz / 768 kbps / 24-bit - Русский - Дубляж с лицензии - в составе матрёшки
Аудио 2: DTS / 5.1 / 48 kHz / 1536 kbps / 24-bit - Русский - Гаврилов Андрей (ранний) - отдельным файлом
Аудио 3: DTS / 5.1 / 48 kHz / 1536 kbps / 24-bit - Русский - Гаврилов Андрей (поздний) - в составе матрёшки
Аудио 4: DTS / 5.1 / 48 kHz / 1536 kbps / 24-bit - Русский - Михалёв Алексей - отдельным файлом
Аудио 5: DTS / 5.1 / 48 kHz / 1536 kbps / 24-bit - Русский - Санаев Павел - отдельным файлом
Аудио 6: DTS / 5.1 / 48 kHz / 1536 kbps / 24-bit - Русский - Петербуржец - отдельным файлом
Аудио 7: DTS / 5.1 / 48 kHz / 1536 kbps / 24-bit - Русский - Горчаков Василий - отдельным файлом
Аудио 8: DTS / 5.1 / 48 kHz / 1536 kbps / 24-bit - Русский - Живов Юрий - отдельным файлом
Аудио 9: DTS / 5.1 / 48 kHz / 1536 kbps / 24-bit - Русский - Дубровин Владимир - отдельным файлом
Аудио 10: DTS / 5.1 / 48 kHz / 1536 kbps / 24-bit - Русский - Переговорщик Санаева - отдельным файлом
Аудио 11: DTS / 5.1 / 48 kHz / 1536 kbps / 24-bit - Русский - Гланц Пётр+Лютая Евгения (псевдо-дубляж) - отдельным файлом
Аудио 12: DTS / 5.1 / 48 kHz / 1536 kbps / 24-bit - Русский - Тарадайкин Игорь+Германова Любовь [Премьер-видео] - отдельным файлом
Аудио 13: DTS / 5.1 / 48 kHz / 1536 kbps / 24-bit - Русский - Стрелков Станислав+Божок Татьяна [Киномания] [DDV] [Biz video] - отдельным файлом
Аудио 14: DTS / 5.1 / 48 kHz / 1536 kbps / 24-bit - Русский - Карусель - отдельным файлом
Аудио 15: DTS / 5.1 / 48 kHz / 1536 kbps / 24-bit - Русский - Андреев Вадим+Гнилова Людмила [НТВ=СТС] - отдельным файлом
Аудио 16: DTS / 5.1 / 48 kHz / 1536 kbps / 24-bit - Русский - Стрелков Станислав+Зотов Константин+Женщина [FDV] - отдельным файлом
Аудио 17: DTS / 5.1 / 48 kHz / 1536 kbps / 24-bit - Русский - Форостенко Олег+Филимонов Дмитрий+Казанцев Андрей+Никонова Жанна [ОРТ] - отдельным файлом
Аудио 18: DTS / 5.1 / 48 kHz / 1536 kbps / 24-bit - Украинский - Телеканал 1+1 - отдельным файлом
Аудио 19: DTS / 5.1 / 48 kHz / 1536 kbps / 24-bit - Украинский - канал ICTV - отдельным файлом
Аудио 20: DTS / 5.1 / 48 kHz / 1536 kbps / 24-bit - Украинский - Новый канал - отдельным файлом
Аудио 21: DTS / 5.1 / 48 kHz / 1536 kbps / 24-bit - Английский - оригинальный - в составе матрёшки
Все DTS дороги (кроме дубляжа) получены выделением ядра из DTS-HD MA треков из раздачи RoxMarty
Аудио 22: DTS / 5.1 / 48 kHz / 1536 kbps / 24-bit - Русский - Гаврилов Андрей (поздний, моя версия, улучшенная, из временной раздачи) - отдельным файлом
Аудио 23: AC3 / 48 kHz / 192 kbps / 2ch - Английский - Q&A Commentaries with Director Robert Zemeckis and Producer Bob Gale - отдельным файлом
Аудио 24: AC3 / 48 kHz / 192 kbps / 2ch - Английский - Feature Commentaries with Producers Bob Gale and Neil Canton - отдельным файлом
Аудио 25: AC3 / 48 kHz / 256 kbps / 2ch - Русский -( RoxMarty )- Комментарии режиссёра Роберта Земекиса и продюсера Боба Гейла - в составе матрёшки
Аудио 26: AC3 / 48 kHz / 256 kbps / 2ch - Русский -( RoxMarty )- Комментарии продюсеров Боба Гейла и Нила Кэнтона - в составе матрёшки
Субтитры №1: Russian
Субтитры №2: Russian - 2-й вариант, из раздачи RoxMarty, немного редактированные
Субтитры №3: English
Субтитры №4: English - 2-й вариант, из раздачи RoxMarty, немного редактированные
Субтитры №5: Russian - субтитры к аудиокомментариям Роберта Земекиса и Боба Гейла
Субтитры №6: Russian - субтитры к аудиокомментариям Боба Гейла и Нила Кэнтона
Субтитры №7: English - Q&A Commentaries with Director Robert Zemeckis and Producer Bob Gale
Субтитры №8: English - Feature Commentaries with Producers Bob Gale and Neil Canton
Субтитры №9: Russian - на надписи
Субтитры №10: Russian - на интерактив, отдельным файлом-

MediaInfo

General
Complete name : J:\BTTF\BTTF2\Back.To.The.Future.2.1080p.BDRip.CHD.mkv
Format : Matroska
File size : 11.8 GiB
Duration : 1h 48mn
Overall bit rate : 15.6 Mbps
Encoded date : UTC 2011-08-07 09:43:37
Writing application : mkvmerge v3.4.0 ('Rapunzel') сборка от May 15 2010 09:38:20
Writing library : libebml v0.8.0 + libmatroska v0.9.0
Video
ID : 1
Format : AVC
Format/Info : Advanced Video Codec
Format profile : [email protected]
Format settings, CABAC : Yes
Format settings, ReFrames : 4 frames
Muxing mode : Container [email protected]
Codec ID : V_MPEG4/ISO/AVC
Duration : 1h 47mn
Bit rate : 11.0 Mbps
Nominal bit rate : 11.3 Mbps
Width : 1 920 pixels
Height : 1 040 pixels
Display aspect ratio : 16:9
Frame rate : 23.976 fps
Resolution : 24 bits
Colorimetry : 4:2:0
Scan type : Progressive
Bits/(Pixel*Frame) : 0.230
Stream size : 8.30 GiB (70%)
Writing library : x264 core 102 r1666 d058f37
Encoding settings : cabac=1 / ref=4 / deblock=1:-3:-3 / analyse=0x3:0x113 / me=umh / subme=10 / psy=1 / psy_rd=1.05:0.10 / mixed_ref=1 / me_range=48 / chroma_me=1 / trellis=2 / 8x8dct=1 / cqm=2 / deadzone=21,11 / fast_pskip=0 / chroma_qp_offset=-2 / threads=6 / sliced_threads=0 / nr=0 / decimate=1 / interlaced=0 / constrained_intra=0 / bframes=6 / b_pyramid=2 / b_adapt=2 / b_bias=0 / direct=3 / weightb=1 / open_gop=0 / weightp=2 / keyint=250 / keyint_min=25 / scenecut=40 / intra_refresh=0 / rc_lookahead=50 / rc=2pass / mbtree=1 / bitrate=11288 / ratetol=2.0 / qcomp=0.70 / qpmin=10 / qpmax=51 / qpstep=4 / cplxblur=20.0 / qblur=0.5 / vbv_maxrate=50000 / vbv_bufsize=50000 / ip_ratio=1.40 / aq=1:1.00 / nal_hrd=none
Language : English
Audio #1
ID : 2
Format : DTS
Format/Info : Digital Theater Systems
Codec ID : A_DTS
Duration : 1h 48mn
Bit rate mode : Constant
Bit rate : 755 Kbps
Channel(s) : 6 channels
Channel positions : Front: L C R, Surround: L R, LFE
Sampling rate : 48.0 KHz
Resolution : 24 bits
Stream size : 583 MiB (5%)
Title : DTS CEE Dubl
Language : Russian
Audio #2
ID : 3
Format : DTS
Format/Info : Digital Theater Systems
Codec ID : A_DTS
Duration : 1h 48mn
Bit rate mode : Constant
Bit rate : 1 510 Kbps
Channel(s) : 6 channels
Channel positions : Front: L C R, Surround: L R, LFE
Sampling rate : 48.0 KHz
Resolution : 24 bits
Stream size : 1.14 GiB (10%)
Title : DTS core AVO Gavrilov late
Language : Russian
Audio #3
ID : 4
Format : DTS
Format/Info : Digital Theater Systems
Codec ID : A_DTS
Duration : 1h 48mn
Bit rate mode : Constant
Bit rate : 1 510 Kbps
Channel(s) : 6 channels
Channel positions : Front: L C R, Surround: L R, LFE
Sampling rate : 48.0 KHz
Resolution : 24 bits
Stream size : 1.14 GiB (10%)
Title : DTSHD core Eng
Language : English
Audio #4
ID : 5
Format : AC-3
Format/Info : Audio Coding 3
Codec ID : A_AC3
Duration : 1h 48mn
Bit rate mode : Constant
Bit rate : 256 Kbps
Channel(s) : 2 channels
Channel positions : L R
Sampling rate : 48.0 KHz
Stream size : 198 MiB (2%)
Title : AC3 Q&A Comments with Director
Language : Russian
Audio #5
ID : 6
Format : AC-3
Format/Info : Audio Coding 3
Codec ID : A_AC3
Duration : 1h 48mn
Bit rate mode : Constant
Bit rate : 256 Kbps
Channel(s) : 2 channels
Channel positions : L R
Sampling rate : 48.0 KHz
Stream size : 198 MiB (2%)
Title : AC3 Comments with Producers
Language : Russian
Text #1
ID : 7
Format : UTF-8
Codec ID : S_TEXT/UTF8
Codec ID/Info : UTF-8 Plain Text
Title : SUB Rus
Language : Russian
Text #2
ID : 8
Format : UTF-8
Codec ID : S_TEXT/UTF8
Codec ID/Info : UTF-8 Plain Text
Title : SUB Rus RME
Language : Russian
Text #3
ID : 9
Format : UTF-8
Codec ID : S_TEXT/UTF8
Codec ID/Info : UTF-8 Plain Text
Title : SUB Eng
Language : English
Text #4
ID : 10
Format : UTF-8
Codec ID : S_TEXT/UTF8
Codec ID/Info : UTF-8 Plain Text
Title : SUB Eng RME
Language : English
Text #5
ID : 11
Format : UTF-8
Codec ID : S_TEXT/UTF8
Codec ID/Info : UTF-8 Plain Text
Title : SUB Rus Q&A Comments with Director
Language : Russian
Text #6
ID : 12
Format : UTF-8
Codec ID : S_TEXT/UTF8
Codec ID/Info : UTF-8 Plain Text
Title : SUB Rus Comments with Producers
Language : Russian
Text #7
ID : 13
Format : UTF-8
Codec ID : S_TEXT/UTF8
Codec ID/Info : UTF-8 Plain Text
Title : SUB Eng Q&A Comments with Director
Language : English
Text #8
ID : 14
Format : UTF-8
Codec ID : S_TEXT/UTF8
Codec ID/Info : UTF-8 Plain Text
Title : SUB Eng Comments with Producers
Language : English
Text #9
ID : 15
Format : UTF-8
Codec ID : S_TEXT/UTF8
Codec ID/Info : UTF-8 Plain Text
Title : Sub forced
Language : Russian
Menu
00:00:00.000 : en:01. Back From the Future
00:02:57.511 : en:02. Main Titles
00:04:17.632 : en:03. Hill Valley
00:12:44.389 : en:04. Marty Junior?
00:17:09.111 : en:05. Batter Up!
00:21:16.525 : en:06. The Almanac
00:26:59.660 : en:07. The Future McFlys
00:34:15.428 : en:08. Chicken
00:38:32.477 : en:09. Past Imperfect
00:46:13.062 : en:10. My Father?
00:50:35.449 : en:11. An Alternate 1985
00:55:32.621 : en:12. Anout That Book
01:01:30.145 : en:13. Back to 1955
01:07:14.197 : en:14. Biff's Lucky Day
01:14:45.940 : en:15. Back to the Dance
01:28:00.609 : en:16. Get That Book!
01:34:43.303 : en:17. Back to Normal?
01:37:46.027 : en:18. A Letter From 1885
01:40:37.240 : en:19. I'm Back
01:43:25.491 : en:20. End Titles

Скриншоты

     
-Назад в будущее 3 / Back To The Future Part III- Страна: США
Студия: Universal Pictures
Жанр: фантастика, боевик, комедия, приключения, семейный
Год выпуска: 1990
Продолжительность: 01:58:24
Слоган: «Лучшее путешествие они оставили напоследок... Но в этот раз они зашли слишком далеко...»
Перевод#1: Профессиональный (дублированный) Пифагор
Перевод#2: Гаврилов Андрей
Перевод#3: Михалёв Алексей
Перевод#4: Санаев Павел
Перевод#5: Горчаков Василий
Перевод#6: студия МЕГА
Перевод#7: Гланц Пётр+Лютая Евгения (псевдо-дубляж)
Перевод#8: Тарадайкин Игорь+Германова Любовь [Премьер-видео]
Перевод#9: Стрелков Станислав+Божок Татьяна [Киномания] [DDV] [Biz video]
Перевод#10: Андреев Вадим+Гнилова Людмила [НТВ=СТС]
Перевод#11: Стрелков Станислав+Зотов Константин+Женщина [FDV]
Перевод#12: Форостенко Олег+Филимонов Дмитрий+Казанцев Андрей+Никонова Жанна [ОРТ]
Перевод#13: Телеканал 1+1
Перевод#14: Новый канал
Cубтитры: русские, английские
Оригинальная аудиодорожка: английский
Режиссер: Роберт Земекис / Robert Zemeckis
Сценарий: Роберт Земекис / Robert Zemeckis, Боб Гэйл / Bob Gale
Продюсер: Нил Кэнтон / Neil Canton, Боб Гэйл / Bob Gale, Кэтлин Кеннеди / Kathleen Kennedy, Фрэнк Маршалл / Frank Marshall, Стивен Спилберг / Steven Spielberg
Оператор: Дин Канди / Dean Cundey
Композитор: Алан Сильвестри / Alan Silvestri
В ролях: Майкл Дж. Фокс (Marty McFly / Seamus McFly), Кристофер Ллойд (Dr. Emmett Brown), Мэри Стинберген (Clara Clayton), Томас Ф. Уилсон (Buford 'Mad Dog' Tannen / Biff Tannen), Лиа Томпсон (Maggie McFly / Lorraine McFly), Элизабет Шу (Jennifer Parker), Джеймс Толкан (Chief Marshal James Strickland), Мэтт Кларк (Chester the Bartender), Даб Тейлор (Saloon Old-Timer #1), Гарри Кэри мл. (Saloon Old-Timer #2), Пэт Баттрем (Saloon Old-Timer #3), Кристофер Уинн (Buford's Gang Member #1 / Needles' Gang Member #1)-Бюджет: $40 000 000
Сборы в США: $87 727 583
Сборы в мире: $244 527 583
Мировая премьера: 25 мая 1990-Описание: Из газет 1985 года Марти узнает, что доктор Браун погиб еще сто лет назад. Несмотря на просьбы Дока не навещать его в XIX веке, Марти вновь хочет вмешаться в ход событий и на машине времени уносится в 1885 год, навстречу Дикому Западу.
Это путешествие, как и все прежние, не обходится без опасных приключений, но смелый Марти, рискуя жизнью, предотвращает трагедию в жизни Эммета Брауна. Тот, в свою очередь, без памяти влюбляется в очаровательную незнакомку, которую спасает от гибели, и поездка домой — в будущее — теряет для него всякий смысл…-
MPAA: - Рекомендуется присутствие родителей-Качество: BDRip 1080p (CHD)
Формат: Matroska-Видео: 1920x1040p / 23,976 fps / 16:9 / 11,0 Mbps / Bits/(Pixel*Frame) : 0.230
Аудио 1: DTS / 5.1 / 48 kHz / 768 kbps / 24-bit - Русский - Дубляж с лицензии - в составе матрёшки
Аудио 2: DTS / 5.1 / 48 kHz / 1536 kbps / 24-bit - Русский - Гаврилов Андрей - в составе матрёшки
Аудио 3: DTS / 5.1 / 48 kHz / 1536 kbps / 24-bit - Русский - Михалёв Алексей - отдельным файлом
Аудио 4: DTS / 5.1 / 48 kHz / 1536 kbps / 24-bit - Русский - Санаев Павел - отдельным файлом
Аудио 5: DTS / 5.1 / 48 kHz / 1536 kbps / 24-bit - Русский - Горчаков Василий - отдельным файлом
Аудио 6: DTS / 5.1 / 48 kHz / 1536 kbps / 24-bit - Русский - студия МЕГА - отдельным файлом
Аудио 7: DTS / 5.1 / 48 kHz / 1536 kbps / 24-bit - Русский - Гланц Пётр+Лютая Евгения (псевдо-дубляж) - отдельным файлом
Аудио 8: DTS / 5.1 / 48 kHz / 1536 kbps / 24-bit - Русский - Тарадайкин Игорь+Германова Любовь [Премьер-видео] - отдельным файлом
Аудио 9: DTS / 5.1 / 48 kHz / 1536 kbps / 24-bit - Русский - Стрелков Станислав+Божок Татьяна [Киномания] [DDV] [Biz video] - отдельным файлом
Аудио 10: DTS / 5.1 / 48 kHz / 1536 kbps / 24-bit - Русский - Андреев Вадим+Гнилова Людмила [НТВ=СТС] - отдельным файлом
Аудио 11: DTS / 5.1 / 48 kHz / 1536 kbps / 24-bit - Русский - Стрелков Станислав+Зотов Константин+Женщина [FDV] - отдельным файлом
Аудио 12: DTS / 5.1 / 48 kHz / 1536 kbps / 24-bit - Русский - Форостенко Олег+Филимонов Дмитрий+Казанцев Андрей+Никонова Жанна [ОРТ] - отдельным файлом
Аудио 13: DTS / 5.1 / 48 kHz / 1536 kbps / 24-bit - Украинский - Телеканал 1+1 - отдельным файлом
Аудио 14: DTS / 5.1 / 48 kHz / 1536 kbps / 24-bit - Украинский - Новый канал - отдельным файлом
Аудио 15: DTS / 5.1 / 48 kHz / 1536 kbps / 24-bit - Английский - оригинальный - в составе матрёшки
Все DTS дороги (кроме дубляжа) получены выделением ядра из DTS-HD MA треков из раздачи RoxMarty
Аудио 16: DTS / 5.1 / 48 kHz / 1536 kbps / 24-bit - Русский - Гаврилов Андрей (моя версия, из временной раздачи) - отдельным файлом
Аудио 17: AC3 / 48 kHz / 192 kbps / 2ch - Английский - Q&A Commentaries with Director Robert Zemeckis and Producer Bob Gale - отдельным файлом
Аудио 18: AC3 / 48 kHz / 192 kbps / 2ch - Английский - Feature Commentaries with Producers Bob Gale and Neil Canton - отдельным файлом
Аудио 19: AC3 / 48 kHz / 256 kbps / 2ch - Русский -( RoxMarty )- Комментарии режиссёра Роберта Земекиса и продюсера Боба Гейла - в составе матрёшки
Аудио 20: AC3 / 48 kHz / 256 kbps / 2ch - Русский -( RoxMarty )- Комментарии продюсеров Боба Гейла и Нила Кэнтона - в составе матрёшки
Субтитры №1: Russian
Субтитры №2: Russian - 2-й вариант, из раздачи RoxMarty, немного редактированные
Субтитры №3: English
Субтитры №4: Russian - субтитры к аудиокомментариям Роберта Земекиса и Боба Гейла
Субтитры №5: Russian - субтитры к аудиокомментариям Боба Гейла и Нила Кэнтона
Субтитры №6: English - Q&A Commentaries with Director Robert Zemeckis and Producer Bob Gale
Субтитры №7: English - Feature Commentaries with Producers Bob Gale and Neil Canton
Субтитры №8: Russian - на надписи
Субтитры №9: Russian - на интерактив, отдельным файлом-

MediaInfo

General
Complete name : J:\BTTF\BTTF3\Back.To.The.Future.3.1080p.BDRip.CHD.mkv
Format : Matroska
File size : 12.8 GiB
Duration : 1h 58mn
Overall bit rate : 15.5 Mbps
Encoded date : UTC 2011-10-12 02:33:53
Writing application : mkvmerge v3.4.0 ('Rapunzel') сборка от May 15 2010 09:38:20
Writing library : libebml v0.8.0 + libmatroska v0.9.0
Video
ID : 1
Format : AVC
Format/Info : Advanced Video Codec
Format profile : [email protected]
Format settings, CABAC : Yes
Format settings, ReFrames : 4 frames
Muxing mode : Container [email protected]
Codec ID : V_MPEG4/ISO/AVC
Duration : 1h 58mn
Bit rate : 10.9 Mbps
Nominal bit rate : 11.2 Mbps
Width : 1 920 pixels
Height : 1 040 pixels
Display aspect ratio : 16:9
Frame rate : 23.976 fps
Resolution : 24 bits
Colorimetry : 4:2:0
Scan type : Progressive
Bits/(Pixel*Frame) : 0.228
Stream size : 9.01 GiB (70%)
Writing library : x264 core 102 r1666 d058f37
Encoding settings : cabac=1 / ref=4 / deblock=1:-3:-3 / analyse=0x3:0x113 / me=umh / subme=10 / psy=1 / psy_rd=1.05:0.10 / mixed_ref=1 / me_range=48 / chroma_me=1 / trellis=2 / 8x8dct=1 / cqm=2 / deadzone=21,11 / fast_pskip=0 / chroma_qp_offset=-2 / threads=12 / sliced_threads=0 / nr=0 / decimate=1 / interlaced=0 / constrained_intra=0 / bframes=6 / b_pyramid=2 / b_adapt=2 / b_bias=0 / direct=3 / weightb=1 / open_gop=0 / weightp=2 / keyint=250 / keyint_min=25 / scenecut=40 / intra_refresh=0 / rc_lookahead=50 / rc=2pass / mbtree=1 / bitrate=11208 / ratetol=2.0 / qcomp=0.70 / qpmin=10 / qpmax=51 / qpstep=4 / cplxblur=20.0 / qblur=0.5 / vbv_maxrate=50000 / vbv_bufsize=50000 / ip_ratio=1.40 / aq=1:1.00 / nal_hrd=none
Language : English
Audio #1
ID : 2
Format : DTS
Format/Info : Digital Theater Systems
Codec ID : A_DTS
Duration : 1h 58mn
Bit rate mode : Constant
Bit rate : 755 Kbps
Channel(s) : 6 channels
Channel positions : Front: L C R, Surround: L R, LFE
Sampling rate : 48.0 KHz
Resolution : 24 bits
Stream size : 639 MiB (5%)
Title : DTS CEE Dubl
Language : Russian
Audio #2
ID : 3
Format : DTS
Format/Info : Digital Theater Systems
Codec ID : A_DTS
Duration : 1h 58mn
Bit rate mode : Constant
Bit rate : 1 510 Kbps
Channel(s) : 6 channels
Channel positions : Front: L C R, Surround: L R, LFE
Sampling rate : 48.0 KHz
Resolution : 24 bits
Stream size : 1.25 GiB (10%)
Title : DTS core AVO Gavrilov
Language : Russian
Audio #3
ID : 4
Format : DTS
Format/Info : Digital Theater Systems
Codec ID : A_DTS
Duration : 1h 58mn
Bit rate mode : Constant
Bit rate : 1 510 Kbps
Channel(s) : 6 channels
Channel positions : Front: L C R, Surround: L R, LFE
Sampling rate : 48.0 KHz
Resolution : 24 bits
Stream size : 1.25 GiB (10%)
Title : DTSHD core Eng
Language : English
Audio #4
ID : 5
Format : AC-3
Format/Info : Audio Coding 3
Codec ID : A_AC3
Duration : 1h 58mn
Bit rate mode : Constant
Bit rate : 256 Kbps
Channel(s) : 2 channels
Channel positions : L R
Sampling rate : 48.0 KHz
Stream size : 217 MiB (2%)
Title : AC3 Q&A Comments with Director
Language : Russian
Audio #5
ID : 6
Format : AC-3
Format/Info : Audio Coding 3
Codec ID : A_AC3
Duration : 1h 58mn
Bit rate mode : Constant
Bit rate : 256 Kbps
Channel(s) : 2 channels
Channel positions : L R
Sampling rate : 48.0 KHz
Stream size : 217 MiB (2%)
Title : AC3 Comments with Producers
Language : Russian
Text #1
ID : 7
Format : UTF-8
Codec ID : S_TEXT/UTF8
Codec ID/Info : UTF-8 Plain Text
Title : SUB Rus
Language : Russian
Text #2
ID : 8
Format : UTF-8
Codec ID : S_TEXT/UTF8
Codec ID/Info : UTF-8 Plain Text
Title : SUB Rus RME
Language : Russian
Text #3
ID : 9
Format : UTF-8
Codec ID : S_TEXT/UTF8
Codec ID/Info : UTF-8 Plain Text
Title : SUB Eng
Language : English
Text #4
ID : 10
Format : UTF-8
Codec ID : S_TEXT/UTF8
Codec ID/Info : UTF-8 Plain Text
Title : SUB Rus Q&A Comments with Director
Language : Russian
Text #5
ID : 11
Format : UTF-8
Codec ID : S_TEXT/UTF8
Codec ID/Info : UTF-8 Plain Text
Title : SUB Rus Comments with Producers
Language : Russian
Text #6
ID : 12
Format : UTF-8
Codec ID : S_TEXT/UTF8
Codec ID/Info : UTF-8 Plain Text
Title : SUB Eng Q&A Comments with Director
Language : English
Text #7
ID : 13
Format : UTF-8
Codec ID : S_TEXT/UTF8
Codec ID/Info : UTF-8 Plain Text
Title : SUB Eng Comments with Producers
Language : English
Text #8
ID : 14
Format : UTF-8
Codec ID : S_TEXT/UTF8
Codec ID/Info : UTF-8 Plain Text
Title : Sub forced
Language : Russian
Menu
00:00:00.000 : en:01. Back Again
00:02:50.336 : en:02. Main Titles
00:05:01.134 : en:03. A Letter From Doc
00:12:42.011 : en:04. Doc's Destiny
00:15:49.365 : en:05. Back to 1885
00:22:15.208 : en:06. Clint Eastwood?
00:30:03.593 : en:07. Mad Dog
00:33:16.119 : en:08. Reunited
00:37:44.679 : en:09. Out of Gas
00:41:54.303 : en:10. Clara
00:50:43.331 : en:11. The Town Festival
00:56:58.665 : en:12. Trouble With Tannen
01:06:25.439 : en:13. The Course of the Future
01:16:23.078 : en:14. Late for a Train
01:20:44.840 : en:15. Showdown
01:30:33.678 : en:16. Racing Against Time
01:42:19.758 : en:17. Back to Normal
01:46:07.235 : en:18. Marty's Choice
01:48:07.939 : en:19. Meet the Family
01:51:52.831 : en:20. End Titles

Скриншоты

     

_________________


Last edited by Hancock on 2012-05-31 22:21; edited 5 times in total
Other forum [Profile] [PM]

Delia

Gender:

Longevity: 11 years

Posts: 1821

Торрент-статистика

Post 31-May-2012 17:28 (after 4 hours)

[Quote]

MediaInfo , пожалуйста . Для всех трех рипов , они ведь разные. Исправила в третьей части медиаинфо.

_________________
Человек – это канат, натянутый между животным и сверхчеловеком, – канат над пропастью.
В человеке ценно то, что он мост, а не цель. Фридрих Ницше
Other forum [Profile] [PM]
Similar theme
Forum Topic Author Torrent Replies Last Post
./templates/default/images/folder_dl.gif Фантастика, фэнтези, ужасы, мистика Владимир Молотов | Отпуск в СССР или Назад в будущее (2019) [FB2] }{@R0N
1 | 0

0 | 1846

5

2019-01-17 22:40
}{@R0N Latest
Display posts from previous:    
Reply to topic

The time now is: Today 02:17

All times are GMT + 3 Hours



You cannot post new topics in this forum
You cannot reply to topics in this forum
You cannot edit your posts in this forum
You cannot delete your posts in this forum
You cannot vote in polls in this forum
You cannot attach files in this forum
You cannot download files in this forum