Today is a free download without charge Download

(OST) Вторжение Кальмарки / Shinryaku! Ika Musume (Ika Musume O.S.T.) - 2010 г., FLAC (tracks+.cue), lossless

Reply to topic
 
Author
Message

Omen ®

Longevity: 9 years 1 month

Posts: 181086

Торрент-статистика

Post 26-Aug-2015 06:00

[Quote]

Вторжение Кальмарки / Shinryaku! Ika Musume-- Название альбома: Ika Musume O.S.T.
Композитор: Tomoki Kikuya
Год выпуска: 2010 г.
Страна: Япония
Аудио кодек: FLAC (*.flac)
Тип рипа: tracks+.cue
Битрейт аудио: lossless
Продолжительность: 57:11
Наличие сканов в содержимом раздачи: да

Треклист

01. Umi kara no Shisha (1:09)
02. Shiryaku no Susume (TV ver.) (1:32)
03. Umi no le Lemon (1:12)
04. Natsu no Umi Hiyori (1:12)
05. Ika no Kyoui (0:42)
06. Jinrui yo, Hirefusu ga ii de geso (1:05)
07. Watashi ni Tsuite Koi de geso (0:53)
08. Kyoufu no Shinryakusha (0:55)
09. Gekitotsu! Ika Musume (1:15)
10. Imaichi de geso (0:44)
11. Isoga na Ika (0:43)
12. Kore wa Nan de geso? (0:45)
13. Umi no Shugosha! Life Saver (0:43)
14. Yume no Tag! Umi o Mamoru Nakama de geso (0:40)
15. Me ga Mawaru ja nai ka! (1:01)
16. Sanae de geso (1:09)
17. Mattari ja nai ka? (0:45)
18. Naminori wa Tanoshii de geso? (0:52)
19. Nagisa no Shinpai Goto (0:37)
20. Umi no le Minamikaze (1:36)
21. Koukinou! Nise Ika Musume (0:35)
22. Myou de geso (0:43)
23. Television no Aru Seikatsu mo Waruku nai ja nai ka (0:42)
24. Mata nai ka! (0:41)
25. Tanjoubi Party de geso (1:02)
26. Hen na Shisen o Kanjiru de geso (1:06)
27. Ika no Hito no Ayashii Takurami (0:41)
28. Hikagaku Teki de geso (1:11)
29. Nanika Dete kisou ja nai ka? (1:00)
30. Mini Ika Musume na Hibi (6:18)
31. Umi o Mamorou ja nai ka (0:57)
32. Honki wa Ashita kara Dasu de geso (0:41)
33. Ebi o Tabetai de geso (0:45)
34. Kossori Iku de geso (0:49)
35. Kanashii ja nai ka... (0:42)
36. Noumen Raider no Theme (0:33)
37. Noumen Raider no Theme (INST) (1:04)
38. Zessan Shinryaku Chuu de geso (0:42)
39. Kono Choushi de geso! (0:53)
40. Ika Ska Rhythm (0:44)
41. Yahho! Ika Seijin (1:05)
42. Kiken ja nai ka? (1:02)
43. Watashi wa Ika Seijin de geso (0:44)
44. Piko Piko Kimi (0:21)
45. Ika Shokushuryuu Drum Solo (0:30)
46. Naminori wa Tanoshii ka? (0:52)
47. Kyou no Shinryaku wa Oyasumi de geso (1:03)
48. Nemui de geso (1:07)
49. Shinryaku no Michi wa Kewashii de geso (1:05)
50. Tenteki de geso (0:40)
51. Yappari Kanashii ja nai ka... (0:42)
52. Umi o Ai shite Kure nai ka? (0:58)
53. Yappari Hen na Shisen o Kanjiru de geso (1:06)
54. Kono Choushi de Iku de geso! (0:54)
55. Omoide no Ningyou (0:34)
56. Sabishii de geso (0:49)
57. Aoi Umi e Ai o Komete (0:49)
58. Metamarism (TV ver.) (1:31)

Лог создания рипа

Exact Audio Copy V1.0 beta 1 from 15. November 2010
EAC extraction logfile from 19. March 2011, 15:17
Tomoki Kikuya / Ika Musume O.S.T.
Used drive : HL-DT-STDVDRAM GSA-4082B Adapter: 0 ID: 1
Read mode : SecureUtilize accurate stream : YesDefeat audio cache : YesMake use of C2 pointers : No
Read offset correction : 667Overread into Lead-In and Lead-Out : NoFill up missing offset samples with silence : YesDelete leading and trailing silent blocks : NoNull samples used in CRC calculations : YesUsed interface : Native Win32 interface for Win NT & 2000Gap handling : Appended to previous track
Used output format : User Defined EncoderSelected bitrate : 320 kBit/sQuality : HighAdd ID3 tag : NoCommand line compressor : C:\Programme\Exact Audio Copy\FLAC\FLAC.EXEAdditional command line options : -V -8 -T "artist=%a" -T "title=%t" -T "album=%g" -T "date=%y" -T "tracknumber=%n" -T "genre=%m" %s
TOC of the extracted CD
Track | Start | Length | Start sector | End sector --------------------------------------------------------- 1 | 0:00.00 | 1:09.02 | 0 | 5176 2 | 1:09.02 | 1:31.59 | 5177 | 12060 3 | 2:40.61 | 1:12.03 | 12061 | 17463 4 | 3:52.64 | 1:12.06 | 17464 | 22869 5 | 5:04.70 | 0:41.61 | 22870 | 26005 6 | 5:46.56 | 1:04.44 | 26006 | 30849 7 | 6:51.25 | 0:52.50 | 30850 | 34799 8 | 7:44.00 | 0:55.26 | 34800 | 38950 9 | 8:39.26 | 1:14.44 | 38951 | 44544 10 | 9:53.70 | 0:43.71 | 44545 | 47840 11 | 10:37.66 | 0:43.00 | 47841 | 51065 12 | 11:20.66 | 0:45.19 | 51066 | 54459 13 | 12:06.10 | 0:42.64 | 54460 | 57673 14 | 12:48.74 | 0:40.33 | 57674 | 60706 15 | 13:29.32 | 1:00.55 | 60707 | 65261 16 | 14:30.12 | 1:09.10 | 65262 | 70446 17 | 15:39.22 | 0:44.56 | 70447 | 73802 18 | 16:24.03 | 0:51.64 | 73803 | 77691 19 | 17:15.67 | 0:36.61 | 77692 | 80452 20 | 17:52.53 | 1:35.46 | 80453 | 87623 21 | 19:28.24 | 0:35.36 | 87624 | 90284 22 | 20:03.60 | 0:42.64 | 90285 | 93498 23 | 20:46.49 | 0:42.21 | 93499 | 96669 24 | 21:28.70 | 0:41.28 | 96670 | 99772 25 | 22:10.23 | 1:02.19 | 99773 | 104441 26 | 23:12.42 | 1:05.45 | 104442 | 109361 27 | 24:18.12 | 0:41.37 | 109362 | 112473 28 | 24:59.49 | 1:10.51 | 112474 | 117774 29 | 26:10.25 | 1:00.22 | 117775 | 122296 30 | 27:10.47 | 6:17.62 | 122297 | 150633 31 | 33:28.34 | 0:56.40 | 150634 | 154873 32 | 34:24.74 | 0:40.41 | 154874 | 157914 33 | 35:05.40 | 0:44.71 | 157915 | 161285 34 | 35:50.36 | 0:49.18 | 161286 | 164978 35 | 36:39.54 | 0:42.24 | 164979 | 168152 36 | 37:22.03 | 0:33.18 | 168153 | 170645 37 | 37:55.21 | 1:04.06 | 170646 | 175451 38 | 38:59.27 | 0:41.71 | 175452 | 178597 39 | 39:41.23 | 0:53.33 | 178598 | 182605 40 | 40:34.56 | 0:44.10 | 182606 | 185915 41 | 41:18.66 | 1:04.52 | 185916 | 190767 42 | 42:23.43 | 1:01.53 | 190768 | 195395 43 | 43:25.21 | 0:43.66 | 195396 | 198686 44 | 44:09.12 | 0:20.39 | 198687 | 200225 45 | 44:29.51 | 0:30.03 | 200226 | 202478 46 | 44:59.54 | 0:52.12 | 202479 | 206390 47 | 45:51.66 | 1:03.27 | 206391 | 211142 48 | 46:55.18 | 1:07.04 | 211143 | 216171 49 | 48:02.22 | 1:05.22 | 216172 | 221068 50 | 49:07.44 | 0:40.23 | 221069 | 224091 51 | 49:47.67 | 0:42.24 | 224092 | 227265 52 | 50:30.16 | 0:58.07 | 227266 | 231622 53 | 51:28.23 | 1:05.63 | 231623 | 236560 54 | 52:34.11 | 0:53.68 | 236561 | 240603 55 | 53:28.04 | 0:33.72 | 240604 | 243150 56 | 54:02.01 | 0:49.15 | 243151 | 246840 57 | 54:51.16 | 0:48.63 | 246841 | 250503 58 | 55:40.04 | 1:30.58 | 250504 | 257311
Track 1
Filename C:\Netzordner\Ika Musume OST\01-Umi kara no Shisha.wav
Pre-gap length 0:00:02.00
Peak level 87.7 % Extraction speed 1.9 X Track quality 100.0 % Test CRC BA0E165B Copy CRC BA0E165B Accurately ripped (confidence 1) [DF1F8DD0] Copy OK
Track 2
Filename C:\Netzordner\Ika Musume OST\02-Shiryaku no Susume (TV ver.).wav
Pre-gap length 0:00:01.40
Peak level 89.2 % Extraction speed 2.3 X Track quality 100.0 % Test CRC CE424EB9 Copy CRC CE424EB9 Accurately ripped (confidence 1) [D793B89F] Copy OK
Track 3
Filename C:\Netzordner\Ika Musume OST\03-Umi no le Lemon.wav
Pre-gap length 0:00:00.40
Peak level 96.2 % Extraction speed 1.5 X Track quality 99.8 % Test CRC A899C1D3 Copy CRC A899C1D3 Accurately ripped (confidence 1) [BA42970F] Copy OK
Track 4
Filename C:\Netzordner\Ika Musume OST\04-Natsu no Umi Hiyori.wav
Pre-gap length 0:00:00.40
Peak level 93.5 % Extraction speed 2.2 X Track quality 100.0 % Test CRC AAC1271F Copy CRC AAC1271F Accurately ripped (confidence 1) [87159E26] Copy OK
Track 5
Filename C:\Netzordner\Ika Musume OST\05-Ika no Kyoui.wav
Pre-gap length 0:00:00.40
Peak level 98.6 % Extraction speed 1.7 X Track quality 100.0 % Test CRC 383DB6F0 Copy CRC 383DB6F0 Accurately ripped (confidence 1) [CBE68505] Copy OK
Track 6
Filename C:\Netzordner\Ika Musume OST\06-Jinrui yo, Hirefusu ga ii de geso.wav
Peak level 100.0 % Extraction speed 2.1 X Track quality 100.0 % Test CRC DF0D4EA8 Copy CRC DF0D4EA8 Accurately ripped (confidence 1) [04C20A9F] Copy OK
Track 7
Filename C:\Netzordner\Ika Musume OST\07-Watashi ni Tsuite Koi de geso.wav
Pre-gap length 0:00:00.40
Peak level 93.4 % Extraction speed 2.0 X Track quality 100.0 % Test CRC 37A092ED Copy CRC 37A092ED Accurately ripped (confidence 1) [C5437051] Copy OK
Track 8
Filename C:\Netzordner\Ika Musume OST\08-Kyoufu no Shinryakusha.wav
Pre-gap length 0:00:00.40
Peak level 97.8 % Extraction speed 2.1 X Track quality 100.0 % Test CRC 1FA22E4B Copy CRC 1FA22E4B Accurately ripped (confidence 1) [4E04B6EA] Copy OK
Track 9
Filename C:\Netzordner\Ika Musume OST\09-Gekitotsu! Ika Musume.wav
Pre-gap length 0:00:00.40
Peak level 99.3 % Extraction speed 2.4 X Track quality 100.0 % Test CRC 1594BF2E Copy CRC 1594BF2E Accurately ripped (confidence 1) [1730C6DA] Copy OK
Track 10
Filename C:\Netzordner\Ika Musume OST\10-Imaichi de geso.wav
Pre-gap length 0:00:00.40
Peak level 91.4 % Extraction speed 2.0 X Track quality 100.0 % Test CRC 16EFDB90 Copy CRC 16EFDB90 Accurately ripped (confidence 1) [66024054] Copy OK
Track 11
Filename C:\Netzordner\Ika Musume OST\11-Isoga na Ika.wav
Pre-gap length 0:00:00.40
Peak level 97.0 % Extraction speed 1.8 X Track quality 100.0 % Test CRC DFE8690C Copy CRC DFE8690C Accurately ripped (confidence 1) [084B7BFF] Copy OK
Track 12
Filename C:\Netzordner\Ika Musume OST\12-Kore wa Nan de geso.wav
Pre-gap length 0:00:00.40
Peak level 75.7 % Extraction speed 2.1 X Track quality 100.0 % Test CRC 39720925 Copy CRC 39720925 Accurately ripped (confidence 1) [C15CEDD2] Copy OK
Track 13
Filename C:\Netzordner\Ika Musume OST\13-Umi no Shugosha! Life Saver.wav
Pre-gap length 0:00:00.40
Peak level 93.7 % Extraction speed 2.0 X Track quality 100.0 % Test CRC E7D5FC91 Copy CRC E7D5FC91 Accurately ripped (confidence 1) [5A3B0723] Copy OK
Track 14
Filename C:\Netzordner\Ika Musume OST\14-Yume no Tag! Umi o Mamoru Nakama de geso.wav
Pre-gap length 0:00:00.40
Peak level 98.0 % Extraction speed 2.0 X Track quality 100.0 % Test CRC 0775060A Copy CRC 0775060A Accurately ripped (confidence 1) [DA76734A] Copy OK
Track 15
Filename C:\Netzordner\Ika Musume OST\15-Me ga Mawaru ja nai ka!.wav
Pre-gap length 0:00:00.89
Peak level 100.0 % Extraction speed 2.4 X Track quality 100.0 % Test CRC 2DAB13C1 Copy CRC 2DAB13C1 Accurately ripped (confidence 1) [95E5B063] Copy OK
Track 16
Filename C:\Netzordner\Ika Musume OST\16-Sanae de geso.wav
Peak level 98.1 % Extraction speed 2.8 X Track quality 100.0 % Test CRC 6C777536 Copy CRC 6C777536 Accurately ripped (confidence 1) [1B25DA57] Copy OK
Track 17
Filename C:\Netzordner\Ika Musume OST\17-Mattari ja nai ka.wav
Pre-gap length 0:00:00.40
Peak level 88.7 % Extraction speed 2.0 X Track quality 100.0 % Test CRC 62E104A4 Copy CRC 62E104A4 Accurately ripped (confidence 1) [7B5B60E8] Copy OK
Track 18
Filename C:\Netzordner\Ika Musume OST\18-Naminori wa Tanoshii de geso.wav
Pre-gap length 0:00:01.40
Peak level 99.4 % Extraction speed 2.5 X Track quality 100.0 % Test CRC 6CD0FAA4 Copy CRC 6CD0FAA4 Accurately ripped (confidence 1) [2F8A4ED9] Copy OK
Track 19
Filename C:\Netzordner\Ika Musume OST\19-Nagisa no Shinpai Goto.wav
Pre-gap length 0:00:00.40
Peak level 65.7 % Extraction speed 2.0 X Track quality 100.0 % Test CRC 469813C2 Copy CRC 469813C2 Accurately ripped (confidence 1) [00F88CC7] Copy OK
Track 20
Filename C:\Netzordner\Ika Musume OST\20-Umi no le Minamikaze.wav
Pre-gap length 0:00:00.40
Peak level 100.0 % Extraction speed 2.4 X Track quality 99.8 % Test CRC 99DB153D Copy CRC 99DB153D Accurately ripped (confidence 1) [44DAEE2E] Copy OK
Track 21
Filename C:\Netzordner\Ika Musume OST\21-Koukinou! Nise Ika Musume.wav
Pre-gap length 0:00:00.40
Peak level 100.0 % Extraction speed 1.8 X Track quality 100.0 % Test CRC 1B34B139 Copy CRC 1B34B139 Accurately ripped (confidence 1) [991EF4AA] Copy OK
Track 22
Filename C:\Netzordner\Ika Musume OST\22-Myou de geso.wav
Pre-gap length 0:00:01.40
Peak level 68.3 % Extraction speed 2.3 X Track quality 100.0 % Test CRC A9B26AC7 Copy CRC A9B26AC7 Accurately ripped (confidence 1) [51DD8577] Copy OK
Track 23
Filename C:\Netzordner\Ika Musume OST\23-Television no Aru Seikatsu mo Waruku nai ja nai ka.wav
Pre-gap length 0:00:00.90
Peak level 90.7 % Extraction speed 2.4 X Track quality 100.0 % Test CRC DD9C54AE Copy CRC DD9C54AE Accurately ripped (confidence 1) [D56FC6A3] Copy OK
Track 24
Filename C:\Netzordner\Ika Musume OST\24-Mata nai ka!.wav
Pre-gap length 0:00:00.40
Peak level 99.1 % Extraction speed 2.3 X Track quality 100.0 % Test CRC 65941228 Copy CRC 65941228 Accurately ripped (confidence 1) [7F3F9325] Copy OK
Track 25
Filename C:\Netzordner\Ika Musume OST\25-Tanjoubi Party de geso.wav
Pre-gap length 0:00:00.40
Peak level 89.9 % Extraction speed 3.0 X Track quality 100.0 % Test CRC 2CD691C3 Copy CRC 2CD691C3 Accurately ripped (confidence 1) [9DC4E478] Copy OK
Track 26
Filename C:\Netzordner\Ika Musume OST\26-Hen na Shisen o Kanjiru de geso.wav
Pre-gap length 0:00:00.40
Peak level 97.3 % Extraction speed 2.9 X Track quality 100.0 % Test CRC 5FA64D2C Copy CRC 5FA64D2C Accurately ripped (confidence 1) [A6C0391C] Copy OK
Track 27
Filename C:\Netzordner\Ika Musume OST\27-Ika no Hito no Ayashii Takurami.wav
Pre-gap length 0:00:00.40
Peak level 47.9 % Extraction speed 1.6 X Track quality 99.7 % Test CRC 9D827647 Copy CRC 9D827647 Accurately ripped (confidence 1) [DD71771C] Copy OK
Track 28
Filename C:\Netzordner\Ika Musume OST\28-Hikagaku Teki de geso.wav
Pre-gap length 0:00:00.40
Peak level 79.9 % Extraction speed 2.8 X Track quality 100.0 % Test CRC 1A11AEEC Copy CRC 1A11AEEC Accurately ripped (confidence 1) [CBEC8761] Copy OK
Track 29
Filename C:\Netzordner\Ika Musume OST\29-Nanika Dete kisou ja nai ka.wav
Pre-gap length 0:00:01.40
Peak level 99.7 % Extraction speed 2.9 X Track quality 100.0 % Test CRC 50D203B8 Copy CRC 50D203B8 Accurately ripped (confidence 1) [245AE02A] Copy OK
Track 30
Filename C:\Netzordner\Ika Musume OST\30-Mini Ika Musume na Hibi.wav
Pre-gap length 0:00:00.40
Peak level 97.6 % Extraction speed 4.7 X Track quality 100.0 % Test CRC 6B0AD0FE Copy CRC 6B0AD0FE Accurately ripped (confidence 1) [5018296E] Copy OK
Track 31
Filename C:\Netzordner\Ika Musume OST\31-Umi o Mamorou ja nai ka.wav
Pre-gap length 0:00:00.90
Peak level 98.2 % Extraction speed 3.2 X Track quality 100.0 % Test CRC 92535833 Copy CRC 92535833 Accurately ripped (confidence 1) [C2187243] Copy OK
Track 32
Filename C:\Netzordner\Ika Musume OST\32-Honki wa Ashita kara Dasu de geso.wav
Pre-gap length 0:00:01.40
Peak level 81.2 % Extraction speed 2.7 X Track quality 100.0 % Test CRC EC51047F Copy CRC EC51047F Accurately ripped (confidence 1) [6EC1395B] Copy OK
Track 33
Filename C:\Netzordner\Ika Musume OST\33-Ebi o Tabetai de geso.wav
Pre-gap length 0:00:00.40
Peak level 93.0 % Extraction speed 2.7 X Track quality 100.0 % Test CRC 2129D470 Copy CRC 2129D470 Accurately ripped (confidence 1) [B84DC503] Copy OK
Track 34
Filename C:\Netzordner\Ika Musume OST\34-Kossori Iku de geso.wav
Pre-gap length 0:00:00.90
Peak level 67.5 % Extraction speed 2.6 X Track quality 100.0 % Test CRC 8A5619AB Copy CRC 8A5619AB Accurately ripped (confidence 1) [7EF143E9] Copy OK
Track 35
Filename C:\Netzordner\Ika Musume OST\35-Kanashii ja nai ka....wav
Pre-gap length 0:00:01.40
Peak level 78.7 % Extraction speed 2.9 X Track quality 100.0 % Test CRC B0CCC985 Copy CRC B0CCC985 Accurately ripped (confidence 1) [56A5AF34] Copy OK
Track 36
Filename C:\Netzordner\Ika Musume OST\36-Noumen Raider no Theme.wav
Pre-gap length 0:00:01.40
Peak level 93.6 % Extraction speed 2.5 X Track quality 100.0 % Test CRC 7710CD6E Copy CRC 7710CD6E Accurately ripped (confidence 1) [4573A88E] Copy OK
Track 37
Filename C:\Netzordner\Ika Musume OST\37-Noumen Raider no Theme (INST).wav
Pre-gap length 0:00:00.40
Peak level 98.1 % Extraction speed 1.6 X Track quality 99.8 % Test CRC 262BE363 Copy CRC 262BE363 Accurately ripped (confidence 1) [65FB77D4] Copy OK
Track 38
Filename C:\Netzordner\Ika Musume OST\38-Zessan Shinryaku Chuu de geso.wav
Pre-gap length 0:00:00.40
Peak level 98.9 % Extraction speed 2.7 X Track quality 100.0 % Test CRC 1F163AD1 Copy CRC 1F163AD1 Accurately ripped (confidence 1) [DBCEE4CC] Copy OK
Track 39
Filename C:\Netzordner\Ika Musume OST\39-Kono Choushi de geso!.wav
Pre-gap length 0:00:00.40
Peak level 84.8 % Extraction speed 2.2 X Track quality 99.8 % Test CRC 79090749 Copy CRC 79090749 Accurately ripped (confidence 1) [C623C076] Copy OK
Track 40
Filename C:\Netzordner\Ika Musume OST\40-Ika Ska Rhythm.wav
Pre-gap length 0:00:01.40
Peak level 92.3 % Extraction speed 2.0 X Track quality 99.7 % Test CRC 1A152BF7 Copy CRC 1A152BF7 Accurately ripped (confidence 1) [1B81E703] Copy OK
Track 41
Filename C:\Netzordner\Ika Musume OST\41-Yahho! Ika Seijin.wav
Pre-gap length 0:00:00.40
Peak level 93.6 % Extraction speed 3.1 X Track quality 100.0 % Test CRC 0A16A77C Copy CRC 0A16A77C Accurately ripped (confidence 1) [78930415] Copy OK
Track 42
Filename C:\Netzordner\Ika Musume OST\42-Kiken ja nai ka.wav
Pre-gap length 0:00:00.90
Peak level 99.6 % Extraction speed 3.5 X Track quality 100.0 % Test CRC E61E55FF Copy CRC E61E55FF Accurately ripped (confidence 1) [CF4AAADC] Copy OK
Track 43
Filename C:\Netzordner\Ika Musume OST\43-Watashi wa Ika Seijin de geso.wav
Pre-gap length 0:00:00.40
Peak level 99.5 % Extraction speed 3.1 X Track quality 100.0 % Test CRC 6579F9AD Copy CRC 6579F9AD Accurately ripped (confidence 1) [85B2C65F] Copy OK
Track 44
Filename C:\Netzordner\Ika Musume OST\44-Piko Piko Kimi.wav
Pre-gap length 0:00:00.90
Peak level 64.8 % Extraction speed 1.8 X Track quality 100.0 % Test CRC 11510929 Copy CRC 11510929 Accurately ripped (confidence 1) [341BC4DF] Copy OK
Track 45
Filename C:\Netzordner\Ika Musume OST\45-Ika Shokushuryuu Drum Solo.wav
Pre-gap length 0:00:00.40
Peak level 84.4 % Extraction speed 2.6 X Track quality 100.0 % Test CRC CCCF79DE Copy CRC CCCF79DE Accurately ripped (confidence 1) [7BDBA3D9] Copy OK
Track 46
Filename C:\Netzordner\Ika Musume OST\46-Naminori wa Tanoshii ka.wav
Pre-gap length 0:00:00.40
Peak level 99.8 % Extraction speed 3.0 X Track quality 100.0 % Test CRC 4982468A Copy CRC 4982468A Accurately ripped (confidence 1) [EC163E77] Copy OK
Track 47
Filename C:\Netzordner\Ika Musume OST\47-Kyou no Shinryaku wa Oyasumi de geso.wav
Pre-gap length 0:00:00.90
Peak level 95.7 % Extraction speed 3.5 X Track quality 100.0 % Test CRC A3DC5092 Copy CRC A3DC5092 Accurately ripped (confidence 1) [4A128AA3] Copy OK
Track 48
Filename C:\Netzordner\Ika Musume OST\48-Nemui de geso.wav
Pre-gap length 0:00:00.90
Peak level 80.1 % Extraction speed 2.7 X Track quality 99.8 % Test CRC 44DBA59A Copy CRC 44DBA59A Accurately ripped (confidence 1) [705AB57E] Copy OK
Track 49
Filename C:\Netzordner\Ika Musume OST\49-Shinryaku no Michi wa Kewashii de geso.wav
Pre-gap length 0:00:00.90
Peak level 100.0 % Extraction speed 3.6 X Track quality 100.0 % Test CRC A40D4B4F Copy CRC A40D4B4F Accurately ripped (confidence 1) [46177FE1] Copy OK
Track 50
Filename C:\Netzordner\Ika Musume OST\50-Tenteki de geso.wav
Pre-gap length 0:00:00.89
Peak level 90.4 % Extraction speed 2.8 X Track quality 100.0 % Test CRC B829A316 Copy CRC B829A316 Accurately ripped (confidence 1) [B27495FB] Copy OK
Track 51
Filename C:\Netzordner\Ika Musume OST\51-Yappari Kanashii ja nai ka....wav
Pre-gap length 0:00:01.40
Peak level 46.5 % Extraction speed 2.8 X Track quality 100.0 % Test CRC B5E3026A Copy CRC B5E3026A Accurately ripped (confidence 1) [7DFB49D9] Copy OK
Track 52
Filename C:\Netzordner\Ika Musume OST\52-Umi o Ai shite Kure nai ka.wav
Pre-gap length 0:00:00.89
Peak level 97.7 % Extraction speed 2.6 X Track quality 99.8 % Test CRC BEFD5553 Copy CRC BEFD5553 Accurately ripped (confidence 1) [80917973] Copy OK
Track 53
Filename C:\Netzordner\Ika Musume OST\53-Yappari Hen na Shisen o Kanjiru de geso.wav
Pre-gap length 0:00:00.90
Peak level 94.0 % Extraction speed 4.0 X Track quality 100.0 % Test CRC 3E6F93A0 Copy CRC 3E6F93A0 Accurately ripped (confidence 1) [715B2092] Copy OK
Track 54
Filename C:\Netzordner\Ika Musume OST\54-Kono Choushi de Iku de geso!.wav
Pre-gap length 0:00:01.40
Peak level 82.7 % Extraction speed 3.4 X Track quality 100.0 % Test CRC 99143B4E Copy CRC 99143B4E Accurately ripped (confidence 1) [F2D29433] Copy OK
Track 55
Filename C:\Netzordner\Ika Musume OST\55-Omoide no Ningyou.wav
Pre-gap length 0:00:01.40
Peak level 33.4 % Extraction speed 3.0 X Track quality 100.0 % Test CRC 04BD6DBD Copy CRC 04BD6DBD Accurately ripped (confidence 1) [4F9E469C] Copy OK
Track 56
Filename C:\Netzordner\Ika Musume OST\56-Sabishii de geso.wav
Pre-gap length 0:00:01.40
Peak level 59.0 % Extraction speed 2.9 X Track quality 100.0 % Test CRC 64A69CF8 Copy CRC 64A69CF8 Accurately ripped (confidence 1) [893AB24B] Copy OK
Track 57
Filename C:\Netzordner\Ika Musume OST\57-Aoi Umi e Ai o Komete.wav
Pre-gap length 0:00:01.40
Peak level 99.9 % Extraction speed 3.7 X Track quality 100.0 % Test CRC 986978AE Copy CRC 986978AE Accurately ripped (confidence 1) [86781751] Copy OK
Track 58
Filename C:\Netzordner\Ika Musume OST\58-Metamarism (TV ver.).wav
Pre-gap length 0:00:01.40
Peak level 90.1 % Extraction speed 4.7 X Track quality 100.0 % Test CRC E30759C6 Copy CRC E30759C6 Accurately ripped (confidence 1) [F9F5A2A7] Copy OK
All tracks accurately ripped
No errors occurred
End of status report

Краткое инфо

Кикуя Томоки - клёвый композитор. Автор тем к таким аниме, например, как: "Хидамари скетч" и "Притворная любовь".
Other forum [Profile] [PM]
Display posts from previous:    
Reply to topic

The time now is: Today 01:27

All times are GMT + 3 Hours



You cannot post new topics in this forum
You cannot reply to topics in this forum
You cannot edit your posts in this forum
You cannot delete your posts in this forum
You cannot vote in polls in this forum
You cannot attach files in this forum
You cannot download files in this forum