Today is a free download without charge Download

Ненаписанное письмо (Евгений Сивоконь) [1985, рисованный мультфильм, TVRip]

Reply to topic
 
Author
Message

Omen ®

Longevity: 7 years 11 months

Posts: 181087

Торрент-статистика

Post 22-Aug-2015 15:00

[Quote]

Ненаписанное письмо
Страна: СССР (Украинская республика)
Жанр: рисованный мультфильм
Продолжительность: 00:09:13
Год выпуска: 1985
Режиссёр: Евгений Сивоконь
Композитор: Вадим Храпачёв
Описание: Лирический этюд о разлуке. Житель большого города постоянно вспоминает девушку, с которой познакомился летом на море, и хочет написать ей письмо, но никак не может решиться...
Доп. информация: Диплом международного фестиваля в Хиросиме (1987)
Качество: TVRip
Формат: AVI
Видео: 2113 kbps, 528х400 (4:3), 25.000 fps, MPEG-4 Visual (XviD)
Аудио: 96 kbps, 48.0 kHz, 1 channel, MPEG Audio (MP3)
Субтитры: отсутствуют

Подробные технические данные

GeneralComplete name : Ненаписанное письмо (1985).aviFormat : AVIFormat/Info : Audio Video InterleaveFile size : 146 MiBDuration : 9mn 13sOverall bit rate : 2 222 KbpsWriting application : Lavf55.33.100
VideoID : 0Format : MPEG-4 VisualFormat profile : Advanced [email protected] settings, BVOP : NoFormat settings, QPel : NoFormat settings, GMC : No warppointsFormat settings, Matrix : Default (H.263)Codec ID : XVIDCodec ID/Hint : XviDDuration : 9mn 13sBit rate : 2 113 KbpsWidth : 528 pixelsHeight : 400 pixelsDisplay aspect ratio : 4:3Frame rate : 25.000 fpsColor space : YUVChroma subsampling : 4:2:0Bit depth : 8 bitsScan type : ProgressiveCompression mode : LossyBits/(Pixel*Frame) : 0.400Stream size : 139 MiB (95%)Writing library : XviD 64
AudioID : 1Format : MPEG AudioFormat version : Version 1Format profile : Layer 3Codec ID : 55Codec ID/Hint : MP3Duration : 9mn 12sBit rate mode : ConstantBit rate : 96.0 KbpsChannel(s) : 1 channelSampling rate : 48.0 KHzCompression mode : LossyStream size : 6.33 MiB (4%)Alignment : Aligned on interleavesInterleave, duration : 24 ms (0.60 video frame)Interleave, preload duration : 24 msWriting library : LAME3.99.5

Скриншоты

Other forum [Profile] [PM]
Display posts from previous:    
Reply to topic

The time now is: Today 13:10

All times are GMT + 3 Hours



You cannot post new topics in this forum
You cannot reply to topics in this forum
You cannot edit your posts in this forum
You cannot delete your posts in this forum
You cannot vote in polls in this forum
You cannot attach files in this forum
You cannot download files in this forum