Today is a free download without charge Download

Чужие похороны / The Pallbearer (Мэтт Ривз / Matt Reeves) [1996, США, комедия, мелодрама, WEB-DL 720p] VO + Sub Eng + Original Eng

Reply to topic
 
Author
Message

Omen ®

Longevity: 8 years 11 months

Posts: 181086

Торрент-статистика

Post 22-Aug-2015 12:00

[Quote]

Чужие похороны / The Pallbearer
Страна: США
Студия: Miramax, The Chess Club
Жанр: комедия, мелодрама
Год выпуска: 1996
Продолжительность: 01:38:03
Перевод: Одноголосый закадровый
Cубтитры: английские
Оригинальная аудиодорожка: английский
Режиссер: Мэтт Ривз / Matt Reeves
В ролях: Дэвид Швиммер / David Schwimmer, Гуинет Пэлтроу / Gwyneth Paltrow, Майкл Рапапорт / Michael Rapaport, Тони Коллетт / Toni Collette, Кэрол Кэйн / Carol Kane…
Описание: Выпускник колледжа Том Томпсон возвращается домой к мамочке полностью разочарованным в жизни. Тепло родного очага, встреча со старыми приятелями и школьной любовью помогают ему снова поверить в себя. Идиллию нарушает телефонный звонок незнакомки, попросившей Тома присутствовать на похоронах одноклассника, имя которого он никак не может вспомнить. Попытки установить личность покойного вызывают целый каскад курьезов и недоразумений...
II Сэмпл II IMDB II
Доп. информация:
За одноголосый перево спасибо Alexick
Тип релиза: WEB-DL 720p
Контейнер: MKV
Видео: AVC / 1280x716 / 16:9 / 23.976fps / Bit rate 3916Kbps
Аудио 1: AC3 / 48.0 KHz / 2ch. / 192kbps / rus / vo
Аудио 2: AC3 / 48.0 KHz / 6ch. / 384kbps / eng
Формат субтитров: softsub (SRT)

MediaInfo

Общее
Уникальный идентификатор : 172154473539778622240452679467998230659 (0x8183BEDD59DA1347809BBFBFBFA5B883)
Полное имя : H:\!_Torrent\The.Pallbearer.1996.WEB-DL.720p_by_vedigo.mkv
Формат : Matroska
Версия формата : Version 4 / Version 2
Размер файла : 3,14 Гбайт
Продолжительность : 1 ч. 38 м.
Общий поток : 4583 Кбит/сек
Название фильма : The.Pallbearer.1996.WEB-DL.720p_by_vedigo
Дата кодирования : UTC 2015-08-22 05:44:44
Программа кодирования : mkvmerge v8.3.0 ('Over the Horizon') 64bit
Библиотека кодирования : libebml v1.3.1 + libmatroska v1.4.2
Attachements : cover_land.jpg / small_cover.jpg / small_cover_land.jpg / cover.jpg
DURATION : 01:38:03.328000000
NUMBER_OF_FRAMES : 183854
NUMBER_OF_BYTES : 141199872
_STATISTICS_WRITING_APP : mkvmerge v8.3.0 ('Over the Horizon') 64bit
_STATISTICS_WRITING_DATE_UTC : 2015-08-22 05:44:44
_STATISTICS_TAGS : BPS DURATION NUMBER_OF_FRAMES NUMBER_OF_BYTES
Видео
Идентификатор : 1
Формат : AVC
Формат/Информация : Advanced Video Codec
Профиль формата : [email protected]
Параметр CABAC формата : Нет
Параметр ReFrames формата : 2 кадра
Идентификатор кодека : V_MPEG4/ISO/AVC
Продолжительность : 1 ч. 38 м.
Битрейт : 3916 Кбит/сек
Ширина : 1280 пикселей
Высота : 716 пикселей
Соотношение сторон : 16:9
Режим частоты кадров : Постоянный
Частота кадров : 23,976 кадра/сек
Цветовое пространство : YUV
Субдискретизация насыщенности : 4:2:0
Битовая глубина : 8 бит
Тип развёртки : Прогрессивная
Бит/(Пиксели*Кадры) : 0.178
Размер потока : 2,68 Гбайт (85%)
Заголовок : The.Pallbearer.1996.WEB-DL.720p_by_vedigo
Default : Да
Forced : Нет
Цветовой диапазон : Limited
Основные цвета : BT.709
Характеристики трансфера : BT.709
Коэффициенты матрицы : BT.709
Аудио #1
Идентификатор : 2
Формат : AC-3
Формат/Информация : Audio Coding 3
Расширение режима : CM (complete main)
Параметр Endianness формата : Big
Идентификатор кодека : A_AC3
Продолжительность : 1 ч. 38 м.
Вид битрейта : Постоянный
Битрейт : 192 Кбит/сек
Каналы : 2 канала
Расположение каналов : Front: L R
Частота : 48,0 КГц
Метод сжатия : С потерями
Размер потока : 135 Мбайт (4%)
Заголовок : VO @ Andreas
Язык : Russian
Default : Да
Forced : Нет
Аудио #2
Идентификатор : 3
Формат : AC-3
Формат/Информация : Audio Coding 3
Расширение режима : CM (complete main)
Параметр Endianness формата : Big
Идентификатор кодека : A_AC3
Продолжительность : 1 ч. 38 м.
Вид битрейта : Постоянный
Битрейт : 384 Кбит/сек
Каналы : 6 каналов
Расположение каналов : Front: L C R, Side: L R, LFE
Частота : 48,0 КГц
Метод сжатия : С потерями
Размер потока : 269 Мбайт (8%)
Заголовок : original
Язык : English
Default : Нет
Forced : Нет
Текст
Идентификатор : 4
Формат : UTF-8
Идентификатор кодека : S_TEXT/UTF8
Идентификатор кодека/Информация : UTF-8 Plain Text
Заголовок : subtitle eng
Язык : English
Default : Нет
Forced : Нет
Меню
00:00:00.000 : en:Chapter 1
00:09:22.000 : en:Chapter 2
00:18:00.000 : en:Chapter 3
00:26:51.000 : en:Chapter 4
00:36:29.000 : en:Chapter 5
00:46:42.000 : en:Chapter 6
00:56:18.000 : en:Chapter 7
01:06:17.000 : en:Chapter 8
01:25:13.000 : en:Chapter 9
01:33:13.000 : en:Chapter 10

Скриншоты


Other forum [Profile] [PM]

Dracula

Longevity: 8 years

Posts: 11039

Торрент-статистика

Post 22-Aug-2015 16:43 (after 4 hours)

Топик был перенесен из форума Наше кино (HD Video) в форум Фильмы до 2000 года


Геннадич
 
Display posts from previous:    
Reply to topic

The time now is: Today 14:21

All times are GMT + 3 Hours



You cannot post new topics in this forum
You cannot reply to topics in this forum
You cannot edit your posts in this forum
You cannot delete your posts in this forum
You cannot vote in polls in this forum
You cannot attach files in this forum
You cannot download files in this forum