Today is a free download without charge Download

Призрачный гонщик 2 / Ghost Rider: Spirit of Vengeance (Марк Невелдайн / Mark Neveldine, Брайан Тейлор / Brian Taylor) [2011, фэнтези, боевик, триллер, BDRip 1080p] |Лицензия|

Reply to topic
 
Author
Message

BoxeR ®

Gender:

Longevity: 9 years

Posts: 423

Торрент-статистика

Post 28-May-2012 15:50

[Quote]

Призрачный гонщик 2 / Ghost Rider: Spirit of Vengeance- Год выпуска: 2011
Страна: США, ОАЭ
Жанр: фэнтези, боевик, триллер
Продолжительность: 01:28:06
Перевод: Профессиональный (дублированный) [Лицензия]
Cубтитры: Russian, English-Режиссер: Марк Невелдайн / Mark Neveldine, Брайан Тейлор / Brian Taylor-В ролях: Николас Кейдж, Кьяран Хайндс, Виоланте Плачидо, Джонни Витуорт, Кристофер Ламберт, Идрис Эльба, Фергус Риордан, Спенсер Уидлинг, Сорин Тофан, Яцек Коман-Описание: Действие разворачивается на задворках Восточной Европы, где главный герой Джонни Блэйз безуспешно пытается справиться со своим проклятием. Его принимает на работу некая секта, которая пытается заполучить дьявола в тот момент, когда он пытается вселиться в тело его смертного сына на дне рождения мальчика.-Качество видео: BDRip 1080p
Формат видео: MKV
Видео кодек: H.264
Аудио кодек: AC3 | DTS
Видео: 1920x800, 24 fps, 11500 Kb/s
Аудио: Russian: AC3, 448 Kb/s (6 ch) / English: DTS, 1510 Kb/s (6 ch)
Скачать: Сэмпл
-

MediaInfo

Общее
Полное имя : Prizrachnyj.gonwik.2.2012.D.BDRip.1080p.mkv
Формат : Matroska
Версия формата : Version 2
Размер файла : 9,01 Гбайт
Продолжительность : 1 ч. 35 м.
Общий поток : 13,5 Мбит/сек
Название фильма : Prizrachnyj.gonwik.2.2012.D.BDRip.1080p.
Дата кодирования : UTC 2012-05-27 20:20:51
Программа кодирования : mkvmerge v5.5.0 ('Healer') built on Apr 6 2012 21:43:24
Библиотека кодирования : libebml v1.2.3 + libmatroska v1.3.0
Видео
Идентификатор : 1
Формат : AVC
Формат/Информация : Advanced Video Codec
Профиль формата : [email protected]
Параметр CABAC формата : Да
Параметр ReFrames формата : 5 кадров
Идентификатор кодека : V_MPEG4/ISO/AVC
Продолжительность : 1 ч. 35 м.
Битрейт : 11,5 Мбит/сек
Ширина : 1920 пикселей
Высота : 800 пикселей
Соотношение сторон : 2,40:1
Частота кадров : 23,976 кадра/сек
Цветовое пространство : YUV
Субдискретизация насыщенности : 4:2:0
Битовая глубина : 8 бит
Тип развёртки : Прогрессивная
Бит/(Пиксели*Кадры) : 0.313
Размер потока : 7,52 Гбайт (84%)
Библиотека кодирования : x264 core 120 r2146 bcd41db
Настройки программы : cabac=1 / ref=5 / deblock=1:-3:-3 / analyse=0x3:0x113 / me=umh / subme=10 / psy=1 / psy_rd=1.00:0.05 / mixed_ref=1 / me_range=32 / chroma_me=1 / trellis=2 / 8x8dct=1 / cqm=0 / deadzone=21,11 / fast_pskip=0 / chroma_qp_offset=-2 / threads=8 / sliced_threads=0 / nr=0 / decimate=1 / interlaced=0 / bluray_compat=0 / constrained_intra=0 / bframes=6 / b_pyramid=2 / b_adapt=2 / b_bias=0 / direct=3 / weightb=1 / open_gop=0 / weightp=2 / keyint=250 / keyint_min=23 / scenecut=40 / intra_refresh=0 / rc=2pass / mbtree=0 / bitrate=11543 / ratetol=1.0 / qcomp=0.70 / qpmin=0 / qpmax=69 / qpstep=4 / cplxblur=20.0 / qblur=0.5 / ip_ratio=1.40 / pb_ratio=1.30 / aq=2:1.00
Язык : English
Default : Нет
Forced : Нет
Аудио #1
Идентификатор : 2
Формат : AC-3
Формат/Информация : Audio Coding 3
Расширение режима : CM (complete main)
Параметр Endianness формата : Big
Идентификатор кодека : A_AC3
Продолжительность : 1 ч. 35 м.
Вид битрейта : Постоянный
Битрейт : 448 Кбит/сек
Каналы : 6 каналов
Расположение каналов : Front: L C R, Side: L R, LFE
Частота : 48,0 КГц
Битовая глубина : 16 бит
Метод сжатия : С потерями
Размер потока : 306 Мбайт (3%)
Язык : Russian
Default : Нет
Forced : Нет
Аудио #2
Идентификатор : 3
Формат : DTS
Формат/Информация : Digital Theater Systems
Идентификатор кодека : A_DTS
Продолжительность : 1 ч. 35 м.
Вид битрейта : Постоянный
Битрейт : 1510 Кбит/сек
Каналы : 6 каналов
Расположение каналов : Front: L C R, Side: L R, LFE
Частота : 48,0 КГц
Битовая глубина : 24 бит
Метод сжатия : С потерями
Размер потока : 1,01 Гбайт (11%)
Язык : English
Default : Нет
Forced : Нет
Текст #1
Идентификатор : 4
Формат : UTF-8
Идентификатор кодека : S_TEXT/UTF8
Идентификатор кодека/Информация : UTF-8 Plain Text
Язык : Russian
Default : Нет
Forced : Нет
Текст #2
Идентификатор : 5
Формат : UTF-8
Идентификатор кодека : S_TEXT/UTF8
Идентификатор кодека/Информация : UTF-8 Plain Text
Язык : English
Default : Нет
Forced : Нет

Доп. Информация

-

Скриншоты

     


Last edited by BoxeR on 2012-05-28 21:32; edited 2 times in total
Other forum [Profile] [PM]

Delia

Gender:

Longevity: 10 years

Posts: 1821

Торрент-статистика

Post 28-May-2012 19:17 (after 3 hours)

[Quote]

Почему кодек XviD ?

_________________
Человек – это канат, натянутый между животным и сверхчеловеком, – канат над пропастью.
В человеке ценно то, что он мост, а не цель. Фридрих Ницше
Other forum [Profile] [PM]
Similar theme
Forum Topic Author Torrent Replies Last Post
./templates/default/images/folder_dl.gif Фантастика, фэнтези, ужасы, мистика Мария Стрелова | Метро 2033: Призраки прошлого (2019) [FB2] }{@R0N
1 | 0

0 | 861

0

2019-06-09 22:58
}{@R0N Latest
Display posts from previous:    
Reply to topic

The time now is: Today 09:34

All times are GMT + 3 Hours



You cannot post new topics in this forum
You cannot reply to topics in this forum
You cannot edit your posts in this forum
You cannot delete your posts in this forum
You cannot vote in polls in this forum
You cannot attach files in this forum
You cannot download files in this forum