Today is a free download without charge Download

Маша и медведь. Фокус-покус. Серия 25 (Режиссер Алина Кукушкина, Эдуард Назаров, Борис Кутневич 2012) HDTVRip

Reply to topic
 
Author
Message

KirovSOFT ®

Gender:

Longevity: 8 years 7 months

Posts: 998

Location: Кировская область -Оричи

Торрент-статистика

Post 28-May-2012 09:38

[Quote]

Маша и медведь. Фокус-покус. Серия 25 (2012) HDTVRip -
Режиссер / Телекомпания: Россия
Год выпуска: 2012
Жанр: Компьютерная анимация, Детский
Описание:
Мультсериал про девочку Машу, которая никому не дает покоя, и в первую очередь - своему другу Медведю.
Мультик добрый, веселый, а по качеству намного опережает многие отечественные 3D-мультфильмы, да и некоторые западные 3D мультсериалы.
Сериал показывается в "Спокойной ночи, малыши".
Цель сериала «Маша и Медведь» проста и вместе с тем актуальна - попытаться донести до ребенка вечные истины в понятной и занятной форме, представить мир в его многообразии, выявить позитивные стороны в любой ситуации. Тактично объяснить логику действий в различных проблемных ситуациях. В ненавязчивой форме помочь в борьбе с собственными слабостями. Показать человеческие недостатки и высмеять их, не оскорбляя ничьего достоинства.
Формат - комедийный детский сериал.
Сериал рассчитан в первую очередь на детскую аудиторию (от 3 до 9 лет) и поэтому форма изложения материала будет адаптирована для детского восприятия, но не будет чрезмерно упрощенной. Сериал планируется действительно семейным, интересным для всех возрастов, чтобы взрослые могли посмеяться над приключениями Маши и Медведя, вспомнив собственное детство.
Благодаря тому, что каждая серия является законченной историей с достоверным видеорядом, у зрителей возникает ощущение, что персонажи и их мир действительно существует параллельно с нашим (при этом принцип завершенности каждой серии позволяет комбинировать их в любой последовательности, так чтобы зритель мог понимать и воспринимать сериал, даже пропустив его первые эпизоды).
Режиссер: Алина Кукушкина, Эдуард Назаров, Борис Кутневич
Персонажи: Маша, медведь и другие
Продолжительность: 00:06:16
Видеокодек: AVC
Битрейт видео: ~2949 кбит/сек
Размер кадра: 1024 х 576
Качество видео: HDTVRip
Аудиокодек: AC3, 2 ch
Битрейт аудио: 192 кбит/сек

MediaInfo:

Код:
Формат                           : Matroska
Версия формата                   : Version 1
Размер файла                     : 150 Мбайт
Продолжительность                : 6 м. 55 с.
Общий поток                      : 3027 Кбит/сек
Дата кодирования                 : UTC 2012-05-28 00:15:20
Программа кодирования            : mkvmerge v2.4.0 ('Fumbling Towards Ecstasy') built on Oct 11 2008 20:13:15
Библиотека кодирования           : libebml v0.7.7 + libmatroska v0.8.1
Видео
Идентификатор                    : 1
Формат                           : AVC
Формат/Информация                : Advanced Video Codec
Профиль формата                  : [email protected]
Параметр CABAC формата           : Нет
Параметр ReFrames формата        : 1 кадр
Идентификатор кодека             : V_MPEG4/ISO/AVC
Продолжительность                : 6 м. 55 с.
Битрейт                          : 2774 Кбит/сек
Номинальный битрейт              : 2949 Кбит/сек
Ширина                           : 1024 пикселя
Высота                           : 576 пикселей
Соотношение сторон               : 16:9
Частота кадров                   : 25,000 кадров/сек
Цветовое пространство            : YUV
Субдискретизация насыщенности    : 4:2:0
Битовая глубина                  : 8 бит
Тип развёртки                    : Прогрессивная
Бит/(Пиксели*Кадры)              : 0.188
Размер потока                    : 137 Мбайт (92%)
Библиотека кодирования           : x264 core 67 r1163+17 7d945df
Настройки программы              : cabac=0 / ref=1 / deblock=1:0:0 / analyse=0x1:0x111 / me=hex / subme=6 / psy_rd=1.0:0.0 / mixed_ref=0 / me_range=16 / chroma_me=1 / trellis=0 / 8x8dct=0 / cqm=0 / deadzone=21,11 / chroma_qp_offset=-2 / threads=4 / nr=0 / decimate=1 / mbaff=0 / bframes=0 / keyint=250 / keyint_min=25 / scenecut=40 / rc=abr / bitrate=2949 / ratetol=1.0 / qcomp=0.60 / qpmin=10 / qpmax=51 / qpstep=4 / ip_ratio=1.40 / aq=1:1.00
Default                          : Да
Forced                           : Нет
Аудио
Идентификатор                    : 2
Формат                           : AC-3
Формат/Информация                : Audio Coding 3
Расширение режима                : CM (complete main)
Идентификатор кодека             : A_AC3
Продолжительность                : 6 м. 55 с.
Вид битрейта                     : Постоянный
Битрейт                          : 192 Кбит/сек
Каналы                           : 2 канала
Расположение каналов             : Front: L R
Частота                          : 44,1 КГц
Битовая глубина                  : 16 бит
Метод сжатия                     : С потерями
Размер потока                    : 9,51 Мбайт (6%)
Default                          : Да
Forced                           : Нет
Скриншоты:
         
Маша и Медведь

_________________
Other forum [Profile] [PM]
Display posts from previous:    
Reply to topic

The time now is: Today 21:32

All times are GMT + 3 Hours



You cannot post new topics in this forum
You cannot reply to topics in this forum
You cannot edit your posts in this forum
You cannot delete your posts in this forum
You cannot vote in polls in this forum
You cannot attach files in this forum
You cannot download files in this forum