Today is a free download without charge Download

Добро пожаловать в Хоксфорд / Welcome to Hoxford (Жульен Мокрани2011) [720р] HDTVRip

Reply to topic
 
Author
Message

KirovSOFT ®

Gender:

Longevity: 9 years 2 months

Posts: 998

Location: Кировская область -Оричи

Торрент-статистика

Post 27-May-2012 21:49

[Quote]

Добро пожаловать в Хоксфорд / Welcome to Hoxford (Жульен Мокрани2011) [720р] HDTVRip-
Русское название: Добро пожаловать в Хоксфорд
Оригинальное название: Welcome to Hoxford
Год выпуска: 2011
Страна: Франция
Жанр: Короткометражный, Ужасы
Описание фильма:
Реймонд Дельгадо не совсем обычный заключенный. Его считают психопатом, Дельгадо всем рассказывает, что он сын Зевса. Однажды его переводят в тюрьму Хоксфорд особого режима, где выясняется что он там не единственный «особый» заключенный. С наступлением полнолуния жуткий вой разносится по тюремным коридорам, люди жмутся от страха за своими решетками и только Реймонд Дельгадо смело встречает чудовище, выходящее на него…
Режиссер: Жульен Мокрани
Актеры: Джейсон Флеминг, Арбен Бажрактараж, Декстер Флетчер
Продолжительность: 00:20:54
Перевод: Любительский (одноголосый)

Видеокодек: MPEG-4 AVC/H.264
Битрейт видео: ~3712 kb/s
Размер кадра: 1280x544
Качество видео: HDTVRip
Звук:
Аудио#1:
48 kHz, AC3, 2ch (L,R), 192 kb/s - русский
Аудио#2: 48 kHz, AC3, 2ch (L,R), 192 kb/s - английский
Сэмпл:

MediaInfo:

Код:
Общее
Уникальный идентификатор                 : 247740274800088670192131984187636189570 (0xBA610A970418C083A0E22F9A65C60982)
Полное имя                               : G:\Welcome to Hoxford.mkv
Формат                                   : Matroska
Версия формата                           : Version 2
Размер файла                             : 613 Мбайт
Продолжительность                        : 20 м.
Общий поток                              : 4096 Кбит/сек
Дата кодирования                         : UTC 2012-05-22 21:02:32
Программа кодирования                    : mkvmerge v5.2.0 ('I can't explain') built on Dec 18 2011 18:12:03
Библиотека кодирования                   : libebml v1.2.3 + libmatroska v1.3.0
Видео
Идентификатор                            : 1
Формат                                   : AVC
Формат/Информация                        : Advanced Video Codec
Профиль формата                          : [email protected]
Параметр CABAC формата                   : Да
Параметр ReFrames формата                : 8 кадров
Идентификатор кодека                     : V_MPEG4/ISO/AVC
Продолжительность                        : 20 м.
Битрейт                                  : 3712 Кбит/сек
Ширина                                   : 1280 пикселей
Высота                                   : 544 пикселя
Соотношение сторон                       : 2,35:1
Частота кадров                           : 25,000 кадров/сек
Цветовое пространство                    : YUV
Субдискретизация насыщенности            : 4:2:0
Битовая глубина                          : 8 бит
Тип развёртки                            : Прогрессивная
Бит/(Пиксели*Кадры)                      : 0.213
Размер потока                            : 543 Мбайт (89%)
Библиотека кодирования                   : x264 core 124 r2197 69a0443
Настройки программы                      : cabac=1 / ref=8 / deblock=1:-1:-1 / analyse=0x3:0x133 / me=umh / subme=10 / psy=1 / psy_rd=1.00:0.15 / mixed_ref=1 / me_range=48 / chroma_me=1 / trellis=2 / 8x8dct=1 / cqm=0 / deadzone=21,11 / fast_pskip=0 / chroma_qp_offset=-3 / threads=6 / sliced_threads=0 / nr=0 / decimate=0 / interlaced=0 / bluray_compat=0 / constrained_intra=0 / bframes=8 / b_pyramid=2 / b_adapt=2 / b_bias=0 / direct=3 / weightb=1 / open_gop=0 / weightp=2 / keyint=250 / keyint_min=25 / scenecut=40 / intra_refresh=0 / rc_lookahead=60 / rc=2pass / mbtree=1 / bitrate=3712 / ratetol=1.0 / qcomp=0.60 / qpmin=0 / qpmax=69 / qpstep=4 / cplxblur=20.0 / qblur=0.5 / ip_ratio=1.40 / aq=1:1.00
Язык                                     : English
Default                                  : Да
Forced                                   : Нет
Аудио #1
Идентификатор                            : 2
Формат                                   : AC-3
Формат/Информация                        : Audio Coding 3
Расширение режима                        : CM (complete main)
Параметр Endianness формата              : Big
Идентификатор кодека                     : A_AC3
Продолжительность                        : 20 м.
Вид битрейта                             : Постоянный
Битрейт                                  : 192 Кбит/сек
Каналы                                   : 2 канала
Расположение каналов                     : Front: L R
Частота                                  : 48,0 КГц
Битовая глубина                          : 16 бит
Метод сжатия                             : С потерями
Размер потока                            : 28,7 Мбайт (5%)
Язык                                     : Russian
Default                                  : Да
Forced                                   : Нет
Аудио #2
Идентификатор                            : 3
Формат                                   : AC-3
Формат/Информация                        : Audio Coding 3
Расширение режима                        : CM (complete main)
Параметр Endianness формата              : Big
Идентификатор кодека                     : A_AC3
Продолжительность                        : 20 м.
Вид битрейта                             : Постоянный
Битрейт                                  : 192 Кбит/сек
Каналы                                   : 2 канала
Расположение каналов                     : Front: L R
Частота                                  : 48,0 КГц
Битовая глубина                          : 16 бит
Метод сжатия                             : С потерями
Размер потока                            : 28,7 Мбайт (5%)
Язык                                     : English
Default                                  : Нет
Forced                                   : Нет
Скриншоты:
       

_________________


Last edited by KirovSOFT on 2012-05-28 21:14; edited 2 times in total
Other forum [Profile] [PM]

Delia

Gender:

Longevity: 11 years

Posts: 1821

Торрент-статистика

Post 28-May-2012 19:24 (after 21 hour)

[Quote]

Постер 500х500.

_________________
Человек – это канат, натянутый между животным и сверхчеловеком, – канат над пропастью.
В человеке ценно то, что он мост, а не цель. Фридрих Ницше
Other forum [Profile] [PM]
Display posts from previous:    
Reply to topic

The time now is: Today 19:34

All times are GMT + 3 Hours



You cannot post new topics in this forum
You cannot reply to topics in this forum
You cannot edit your posts in this forum
You cannot delete your posts in this forum
You cannot vote in polls in this forum
You cannot attach files in this forum
You cannot download files in this forum