Today is a free download without charge Download

Ч/Б (Евгений Шелякин) [2014, Россия, комедия, криминал, фантастика, WEB-DL 720p]

Reply to topic
 
Author
Message

Omen ®

Longevity: 8 years 10 months

Posts: 181086

Торрент-статистика

Post 18-Aug-2015 21:00

[Quote]

Ч/Б
Жанр: комедия, криминал, фантастика
Год выпуска: 2014
Продолжительность: 01:27:08
Перевод: Не требуется
Субтитры: нет
Оригинальная аудиодорожка: русский
Режиссёр: Евгений Шелякин
В ролях: Алексей Чадов
Мераб Нинидзе
Сергей Маковецкий
Гурам Баблишвили
Бесо Гатаев
Кахи Кавсадзе
Екатерина Редникова
Мария Андреева
Мария Звонарева
Андрей Руденский
Описание: Наши дни. Опасного авторитета-интеллектуала Алхана(Сергей Маковецкий) одновременно решают ограбить обманутый им Ярослав(Алексей Чадов) и мелкий жулик Нурик(Мераб Нинидзе). По случайности во время их столкновения Нурик погибает, но возвращается в мир с миссией: быть ангелом-хранителем Ярослава. Вот только Ярослав при этом страдает «аллергией на Кавказ». Мистическим образом скованные вместе, эти двое вынуждены искать общий язык и спасаться от жаждущего расправы Алхана с его подручными.
Доп. информация:
Сэмпл: http://multi-up.com/1062180
Качество видео: WEB-DL
Формат видео: MKV
Видео: AVC, 3872 kb/s, [email protected], 2,40:1, 25,000 кадров/сек
Аудио: AC3, 384 kb/s (6 ch), 48,0 КГц

MediaInfo

Полное имя : C:\Users\Победа\Downloads\4.B.2015.O.WEB-DL.720p.mkv
Формат : Matroska
Версия формата : Version 4 / Version 2
Размер файла : 2,70 Гбайт
Продолжительность : 1 ч. 29 м.
Общий поток : 4343 Кбит/сек
Дата кодирования : UTC 2015-04-23 20:54:02
Программа кодирования : mkvmerge v6.9.1 ('Blue Panther') 64bit built on Apr 18 2014 18:23:38
Библиотека кодирования : libebml v1.3.0 + libmatroska v1.4.1
Видео
Идентификатор : 1
Формат : AVC
Формат/Информация : Advanced Video Codec
Профиль формата : [email protected]
Параметр CABAC формата : Нет
Параметр ReFrames формата : 2 кадра
Идентификатор кодека : V_MPEG4/ISO/AVC
Продолжительность : 1 ч. 29 м.
Битрейт : 3872 Кбит/сек
Ширина : 960 пикселей
Высота : 532 пикселя
Соотношение сторон : 2,40:1
Режим частоты кадров : Постоянный
Частота кадров : 25,000 кадров/сек
Цветовое пространство : YUV
Субдискретизация насыщенности : 4:2:0
Битовая глубина : 8 бит
Тип развёртки : Прогрессивная
Бит/(Пиксели*Кадры) : 0.303
Размер потока : 2,41 Гбайт (89%)
Язык : English
Default : Да
Forced : Нет
Основные цвета : BT.709
Характеристики трансфера : BT.709
Коэффициенты матрицы : BT.709
colour_range : Limited
Аудио
Идентификатор : 2
Формат : AC-3
Формат/Информация : Audio Coding 3
Расширение режима : CM (complete main)
Параметр Endianness формата : Big
Идентификатор кодека : A_AC3
Продолжительность : 1 ч. 29 м.
Вид битрейта : Постоянный
Битрейт : 384 Кбит/сек
Каналы : 6 каналов
Расположение каналов : Front: L C R, Side: L R, LFE
Частота : 48,0 КГц
Битовая глубина : 16 бит
Метод сжатия : С потерями
Размер потока : 245 Мбайт (9%)
Язык : Russian
Default : Да
Forced : Нет
Меню
00:00:00.000 : en:Глава 1
00:01:34.000 : en:Глава 2
00:04:55.000 : en:Глава 3
00:08:54.000 : en:Глава 4
00:13:33.000 : en:Глава 5
00:18:07.000 : en:Глава 6
00:22:26.000 : en:Глава 7
00:28:06.000 : en:Глава 8
00:33:28.000 : en:Глава 9
00:37:56.000 : en:Глава 10
00:44:28.000 : en:Глава 11
00:49:31.000 : en:Глава 12
00:55:14.000 : en:Глава 13
00:59:56.000 : en:Глава 14
01:06:03.000 : en:Глава 15
01:09:47.000 : en:Глава 16
01:15:40.000 : en:Глава 17
01:21:19.000 : en:Глава 18

Скриншот c названием фильма

Скриншоты










Other forum [Profile] [PM]
Display posts from previous:    
Reply to topic

The time now is: Today 20:59

All times are GMT + 3 Hours



You cannot post new topics in this forum
You cannot reply to topics in this forum
You cannot edit your posts in this forum
You cannot delete your posts in this forum
You cannot vote in polls in this forum
You cannot attach files in this forum
You cannot download files in this forum