Today is a free download without charge Download

Грязные прелести / Dirty Pretty Things [ Стивен Фрирз (2002) триллер, драма, криминал, BDRip 720p ]

Reply to topic
 
Author
Message

Delia ®

Gender:

Longevity: 11 years

Posts: 1821

Торрент-статистика

Post 25-May-2012 13:05

[Quote]

Грязные прелести / Dirty Pretty Things«Every dream has its price.»--
Год выпуска: 2002
Страна: Великобритания
Жанр: триллер, драма, криминал, ...
Продолжительность: 01:37:02
Перевод: Профессиональный (дублированный)
Субтитры: Russian , English (srt)
Режиссер: Стивен Фрирз
Сценарий: Стивен Найт
Продюсер: Роберт Джонс, Трэйси Сиуорд, Джули Голдштейн, ...
Оператор: Крис Менгис
Композитор: Натан Ларсон
Художник: Хуго Луцык-Выховский, Ребекка Холмс, Одиль Дикс-Мирье, ...
Монтаж: Мик Одсли- В ролях: Одри Тоту (Audrey Tautou), Чивител Эджофор (Chiwetel Ejiofor), Серхи Лопес (Sergi Lopez), Софи Оконедо (Sophie Okonedo), Бенедикт Вонг (Benedict Wong), Kenan Hudaverdi, Дэймон Янгер (Damon Younger), Пол Бхаттачарджи (Paul Bhattacharjee), Даррелл Д’Силва (Darrell D'Silva), Сотиги Куяте (Sotigui Kouyate), Эби Гоухад (Abi Gouhad), Исраель Адурамо (Israel Aduramo), Yemi Ajibade, Барбер Али (Barber Ali), Джозеф Алтин (Josef Altin), Fisun Burgess, Златко Бурич (Zlatko Buric), Крисс Досанж (Kriss Dosanjh), Нома Думезвени (Noma Dumezweni), Jeillo Edwards
Описание: Подпольный мир Лондона. Здесь все продается и покупается. Молодой человек и девушка работают в одном отеле, очаге преступной деятельности.Они практически незнакомы до того момента, пока один из них не делает леденящее душу открытие. Герои не могут сообщить об этом ни коррумпированному боссу, ни полиции. Они будут счастливы, если им удастся остаться в живых.-Рейтинг MPAA: -- --Качество: BDRip
Формат: MKV
Видео кодек: H.264 (AVC)
Аудио кодеk: AC3
Видео: 1280x692 (1.850:1), 24.000 fps, AVC, 6 066 Kbps
Аудио: AC3, 384 Kbps, 48.0 KHz, 6 ch
Отдельно на народ.ру:
384 Кбит/сек, 48,0 КГц, 16 бит, 6 каналов, AC-3 , MVO
384 Кбит/сек, 48,0 КГц, 16 бит, 6 каналов, AC-3, English

МедиаИнфо

Код:
General
Complete name                    : Grjaznye.prelesti.2002.BDrip-F.HD.mkv
Format                           : Matroska
File size                        : 4.37 GiB
Duration                         : 1h 37mn
Overall bit rate                 : 6 441 Kbps
Encoded date                     : UTC 2012-05-25 07:55:23
Writing application              : mkvmerge v5.4.0 ('Piper') built on Mar 10 2012 13:34:39
Writing library                  : libebml v1.2.3 + libmatroska v1.3.0
Video
ID                               : 1
Format                           : AVC
Format/Info                      : Advanced Video Codec
Format profile                   : [email protected]
Format settings, CABAC           : Yes
Format settings, ReFrames        : 9 frames
Muxing mode                      : Container [email protected]
Codec ID                         : V_MPEG4/ISO/AVC
Duration                         : 1h 37mn
Bit rate                         : 6 066 Kbps
Width                            : 1 280 pixels
Height                           : 692 pixels
Display aspect ratio             : 1.850
Frame rate                       : 24.000 fps
Color space                      : YUV
Chroma subsampling               : 4:2:0
Bit depth                        : 8 bits
Scan type                        : Progressive
Bits/(Pixel*Frame)               : 0.285
Stream size                      : 4.02 GiB (92%)
Writing library                  : x264 core 122 r2184 5c85e0a
Encoding settings                : cabac=1 / ref=9 / deblock=1:-3:-3 / analyse=0x3:0x113 / me=umh / subme=10 / psy=1 / psy_rd=1.00:0.10 / mixed_ref=1 / me_range=48 / chroma_me=1 / trellis=2 / 8x8dct=1 / cqm=0 / deadzone=21,11 / fast_pskip=0 / chroma_qp_offset=-5 / threads=6 / sliced_threads=0 / nr=0 / decimate=1 / interlaced=0 / bluray_compat=0 / constrained_intra=0 / bframes=8 / b_pyramid=2 / b_adapt=2 / b_bias=0 / direct=3 / weightb=1 / open_gop=0 / weightp=2 / keyint=240 / keyint_min=24 / scenecut=40 / intra_refresh=0 / rc=2pass / mbtree=0 / bitrate=6066 / ratetol=1.0 / qcomp=0.70 / qpmin=0 / qpmax=69 / qpstep=4 / cplxblur=20.0 / qblur=0.5 / ip_ratio=1.40 / pb_ratio=1.20 / aq=2:0.90
Color primaries                  : BT.709-5, BT.1361, IEC 61966-2-4, SMPTE RP177
Transfer characteristics         : BT.709-5, BT.1361
Matrix coefficients              : BT.709-5, BT.1361, IEC 61966-2-4 709, SMPTE RP177
Audio
ID                               : 2
Format                           : AC-3
Format/Info                      : Audio Coding 3
Mode extension                   : CM (complete main)
Codec ID                         : A_AC3
Duration                         : 1h 37mn
Bit rate mode                    : Constant
Bit rate                         : 384 Kbps
Channel(s)                       : 6 channels
Channel positions                : Front: L C R, Side: L R, LFE
Sampling rate                    : 48.0 KHz
Bit depth                        : 16 bits
Stream size                      : 267 MiB (6%)
Language                         : Russian
Text #1
ID                               : 3
Format                           : UTF-8
Codec ID                         : S_TEXT/UTF8
Codec ID/Info                    : UTF-8 Plain Text
Language                         : Russian
Text #2
ID                               : 4
Format                           : UTF-8
Codec ID                         : S_TEXT/UTF8
Codec ID/Info                    : UTF-8 Plain Text


Скриншоты

   
   

_________________
Человек – это канат, натянутый между животным и сверхчеловеком, – канат над пропастью.
В человеке ценно то, что он мост, а не цель. Фридрих Ницше
Other forum [Profile] [PM]
Display posts from previous:    
Reply to topic

The time now is: Today 01:00

All times are GMT + 3 Hours



You cannot post new topics in this forum
You cannot reply to topics in this forum
You cannot edit your posts in this forum
You cannot delete your posts in this forum
You cannot vote in polls in this forum
You cannot attach files in this forum
You cannot download files in this forum