Today is a free download without charge Download

Ветер северный (Игорь Москвитин) [2011, Россия, драма, DVD5] R5 «Дивайс», «ВС трейд»

Reply to topic
 
Author
Message

Koralina ®

Longevity: 9 years 7 months

Posts: 994

Location: Lithuania

Торрент-статистика

Post 24-May-2012 19:39

[Quote]

Ветер северный
Русское название: Ветер северный
Оригинальное название: Veter severniy
Год выхода: 2011
Российская премьера: 12 июня 2011
Дата выхода DVD: 5 апреля 2012, «Дивайс», «ВС трейд»
Режиссер: Игорь Москвитин
В ролях: Сергей Горобченко, Карина Разумовская, Константин Демидов, Светлана Бакулина, Елизавета Александрова, Дарья Циберкина, Владимир Лесун, Роман Павлушев, Татьяна Ткач, Юрий Карпенк
Страна производства: Россия
Продолжительность: 93 мин.
Продюсер: Инесса Юрченко, Сергей Щеглов, Алексей Рыбин
Сценарий: Елена Цвентух
Жанр: драма
Перевод: Оригинал [Лицензия]
Cубтитры: нет
Оригинальная аудиодорожка: русский
Описание: Выпускница музыкального училища, дочка контр-адмирала, Катя Андреева выходит замуж за капитана-лейтенанта Василия Касимова. Во время свадьбы на свадьбе появляется неизвестный капитан и со словами 'Это тебе за Летунову' бьёт Василия в морду. Катя в шоке. Всё, что она смогла узнать от мужа, что Летунова, соседка этого капитана Прозорова в гарнизоне, где служил Василий, и он, скорее всего, её приревновал. Вместо свадебного путешествия Катя едет в Озёрный, что бы выяснить, что же, всё-таки, произошло между её мужем и Летуновой. Сбежав из поезда от мужа, Катя тайно проникает на закрытую территорию военного гарнизона. Там она узнает, что Татьяна Летунова жестоко избита неизвестными и находится в коме, и что она ждала от Василия ребёнка. У Летуновой есть маленький сынишка Санька, и Катя решает остаться в гарнизоне, что бы присматривать за мальчиком, а заодно помочь организовать для детей гарнизона Новогодний праздник, который не успела организовать Татьяна. Позже в Озёрном погибает матрос, знакомый Летуновой, а вслед за ним и его друг. Выясняется, что Василий причастен к этим страшным событиям и теперь опасность угрожает и Кате и Саньке и Прозорову, к которому Катя всё больше привязывается, несмотря на их постоянные ссоры.
Рейтинг IMDB:
Рейтинг Kinopoisk:

Качество
: DVD5 R5
Формат: DVD-Video
Видео кодек: MPEG2
Аудио кодек: AC3
Видео: PAL 16:9 (720x576(0.613)) MPEG Video, 25,000 кадр/сек, 6352 Кбит/сек
Аудио: Russian (Dolby AC3, 6 ch) 448 Кбит/сек, 48,0 КГц

DVDInfo

Title:
Size: 4.11 Gb ( 4 314 130 KBytes ) - DVD-5
Enabled regions: 1, 2, 3, 4, 5, 6, 7, 8
VTS_01 :
Play Length: 01:33:40
Video: PAL 16:9 (720x576) VBR, Auto Letterboxed
Audio:
Russian (Dolby AC3, 6 ch)
Menu Video:
PAL 4:3 (720x576) VBR
Menu Audio:
Not specified (Dolby AC3, 2 ch)
Menu Subtitles:
Not specified
Menu English Language Unit :
Root Menu

MediaInfo

Общее
Полное имя : J:\Новинки 2012\Veter.Severnay.2011.DVD5\VIDEO_TS\VTS_01_1.VOB
Формат : MPEG-PS
Размер файла : 1024 Мбайт
Продолжительность : 20 м.
Режим общего битрейта : Переменный
Общий поток : 6938 Кбит/сек
Видео
Идентификатор : 224 (0xE0)
Формат : MPEG Video
Версия формата : Version 2
Профиль формата : [email protected]
Параметр BVOP формата : Да
Параметр матрицы формата : Выборочная
Продолжительность : 20 м.
Вид битрейта : Переменный
Битрейт : 6352 Кбит/сек
Максимальный битрейт : 7400 Кбит/сек
Ширина : 720 пикселей
Высота : 576 пикселей
Соотношение сторон : 16:9
Частота кадров : 25,000 кадров/сек
Стандарт вещания : PAL
Цветовое пространство : YUV
Субдискретизация насыщенности : 4:2:0
Битовая глубина : 8 бит
Тип развёртки : Чересстрочная
Порядок развёртки : Верхнее поле первое
Метод сжатия : С потерями
Бит/(Пиксели*Кадры) : 0.613
Размер потока : 937 Мбайт (92%)
Аудио
Идентификатор : 189 (0xBD)-128 (0x80)
Формат : AC-3
Формат/Информация : Audio Coding 3
Расширение режима : CM (complete main)
Параметр Endianness формата : Big
Режим смешивания : DVD-Video
Продолжительность : 20 м.
Вид битрейта : Постоянный
Битрейт : 448 Кбит/сек
Каналы : 6 каналов
Расположение каналов : Front: L C R, Side: L R, LFE
Частота : 48,0 КГц
Битовая глубина : 16 бит
Метод сжатия : С потерями
Размер потока : 66,1 Мбайт (6%)

Скриншоты меню

   

Скриншоты фильма

                   

_________________
Other forum [Profile] [PM]
Display posts from previous:    
Reply to topic

The time now is: Today 01:17

All times are GMT + 3 Hours



You cannot post new topics in this forum
You cannot reply to topics in this forum
You cannot edit your posts in this forum
You cannot delete your posts in this forum
You cannot vote in polls in this forum
You cannot attach files in this forum
You cannot download files in this forum