Today is a free download without charge Download

1+1 (Неприкасаемые) | Intouchables (Оливье Накаш, Эрик Толедано) [2011, драма, комедия, BDRip 1080p]

Reply to topic
 
Author
Message

BoxeR ®

Gender:

Longevity: 9 years

Posts: 423

Торрент-статистика

Post 24-May-2012 00:33

[Quote]

1+1 (Неприкасаемые) | Intouchables-

  • Год выпуска: 2011
  • Страна:
  • Жанр: Драма, комедия
  • Продолжительность: 01:52:02
  • Перевод: Профессиональный (дублированный)
  • Субтитры: | -
  • Режиссер: Оливье Накаш, Эрик Толедано-
  • В ролях: Франсуа Клюзе, Омар Си, Анн Ле Ни, Одри Флеро, Клотильд Молле, Альба Гайя Крагеде Беллуджи, Сирил Менди, Кристиан Амери, Грегуар Эстерманн, Жозефин де Мо Доминик Дагьер, Франсуа Карон, Томас Соливерес, Дороти Бриер, Мари-Лор Дикуру, Эмили Каен, Сильвен Лазард, Жан Франсуа Кэйри, Йен Фенелон, Рено Барсе, Франсуа Бюрелу, Никки Марбо, Бенжамин Барош, Жером Повель, Антуан Лорен, Фабрис Мантенья, Хеди Бушенафа, Каролин Бург, Мишель Виноградов, Кевин Вамо-
  • Описание: Пострадав в результате несчастного случая, богатый аристократ Филипп нанимает в помощники человека, который менее всего подходит для этой работы, — молодого жителя предместья Дрисса, только что освободившегося из тюрьмы. Несмотря на то, что Филипп прикован к инвалидному креслу, Дриссу удается привнести в размеренную жизнь аристократа дух приключений.-
  • Качество видео: BDRip 1080p
  • Формат: MKV
  • Видео кодек: H.264
  • Аудио кодек: DTS, AC-3
  • Видео: MPEG-4 AVC, 1920x1040, 23.976 fps, 12.09 Mbps
  • Аудио №1: French - DTS, 1510 kbps, 48 KHz | [Оригинальная аудиодорожка]
  • Аудио №2: Russian - AC-3, 384 kbps, 48 KHz | [Профессиональный (дублированный)]
- -

Рейтинги

Media Info

Код:
General
Unique ID                                : 186261847374057159981053057577629842944 (0x8C20BA18713326A081B512AB33D8FE00)
Complete name                            : G:\HDTV\Неприкасаемые (1+1) (1920x1040) [2011].mkv
Format                                   : Matroska
Format version                           : Version 2
File size                                : 11.2 GiB
Duration                                 : 1h 52mn
Overall bit rate                         : 14.3 Mbps
Movie name                               : "Muxed by Goliaf"
Encoded date                             : UTC 2012-05-06 09:33:56
Writing application                      : mkvmerge v4.0.0 ('The Stars were mine') сборка от Jun  6 2010 16:18:42
Writing library                          : libebml v1.0.0 + libmatroska v1.0.0
Video
ID                                       : 1
Format                                   : AVC
Format/Info                              : Advanced Video Codec
Format profile                           : [url=mailto:[email protected]][email protected][/url]
Format settings, CABAC                   : Yes
Format settings, ReFrames                : 4 frames
Codec ID                                 : V_MPEG4/ISO/AVC
Duration                                 : 1h 52mn
Bit rate                                 : 12.4 Mbps
Width                                    : 1 920 pixels
Height                                   : 1 040 pixels
Display aspect ratio                     : 1.85:1
Frame rate                               : 24.000 fps
Color space                              : YUV
Chroma subsampling                       : 4:2:0
Bit depth                                : 8 bits
Scan type                                : Progressive
Bits/(Pixel*Frame)                       : 0.258
Stream size                              : 9.46 GiB (85%)
Title                                    : СHD
Writing library                          : x264 core 120 r2146 bcd41db
Encoding settings                        : cabac=1 / ref=4 / deblock=1:-3:-3 / analyse=0x3:0x113 / me=umh / subme=10 / psy=1 / psy_rd=1.05:0.10 / mixed_ref=1 / me_range=32 / chroma_me=1 / trellis=2 / 8x8dct=1 / cqm=0 / deadzone=21,11 / fast_pskip=0 / chroma_qp_offset=-2 / threads=8 / sliced_threads=0 / nr=0 / decimate=1 / interlaced=0 / bluray_compat=0 / constrained_intra=0 / bframes=6 / b_pyramid=2 / b_adapt=2 / b_bias=0 / direct=3 / weightb=1 / open_gop=0 / weightp=2 / keyint=250 / keyint_min=24 / scenecut=40 / intra_refresh=0 / rc=2pass / mbtree=0 / bitrate=12385 / ratetol=1.0 / qcomp=0.70 / qpmin=0 / qpmax=69 / qpstep=4 / cplxblur=20.0 / qblur=0.5 / ip_ratio=1.40 / pb_ratio=1.30 / aq=2:0.90
Language                                 : French
Default                                  : No
Forced                                   : No
Audio #1
ID                                       : 2
Format                                   : DTS
Format/Info                              : Digital Theater Systems
Codec ID                                 : A_DTS
Duration                                 : 1h 52mn
Bit rate mode                            : Constant
Bit rate                                 : 1 510 Kbps
Channel(s)                               : 6 channels
Channel positions                        : Front: L C R, Side: L R, LFE
Sampling rate                            : 48.0 KHz
Bit depth                                : 24 bits
Compression mode                         : Lossy
Delay relative to video                  : 11ms
Stream size                              : 1.18 GiB (11%)
Language                                 : French
Default                                  : No
Forced                                   : No
Audio #2
ID                                       : 5
Format                                   : AC-3
Format/Info                              : Audio Coding 3
Mode extension                           : CM (complete main)
Format settings, Endianness              : Big
Codec ID                                 : A_AC3
Duration                                 : 1h 52mn
Bit rate mode                            : Constant
Bit rate                                 : 384 Kbps
Channel(s)                               : 6 channels
Channel positions                        : Front: L C R, Side: L R, LFE
Sampling rate                            : 48.0 KHz
Bit depth                                : 16 bits
Compression mode                         : Lossy
Stream size                              : 308 MiB (3%)
Title                                    : DUB LINE
Language                                 : Russian
Default                                  : No
Forced                                   : Yes
Text #1
ID                                       : 3
Format                                   : UTF-8
Codec ID                                 : S_TEXT/UTF8
Codec ID/Info                            : UTF-8 Plain Text
Language                                 : Russian
Default                                  : No
Forced                                   : No
Text #2
ID                                       : 4
Format                                   : UTF-8
Codec ID                                 : S_TEXT/UTF8
Codec ID/Info                            : UTF-8 Plain Text
Language                                 : English
Default                                  : No
Forced                                   : No
Menu
00:00:00.000                             : en:00:00:00.000
00:07:26.000                             : en:00:07:26.000
00:12:54.375                             : en:00:12:54.375
00:18:56.667                             : en:00:18:56.667
00:26:51.958                             : en:00:26:51.958
00:30:50.708                             : en:00:30:50.708
00:37:26.208                             : en:00:37:26.208
00:42:05.667                             : en:00:42:05.667
00:48:45.333                             : en:00:48:45.333
00:54:26.250                             : en:00:54:26.250
00:58:02.708                             : en:00:58:02.708
01:04:06.833                             : en:01:04:06.833
01:14:27.042                             : en:01:14:27.042
01:21:39.833                             : en:01:21:39.833
01:29:26.125                             : en:01:29:26.125
01:35:56.875                             : en:01:35:56.875
01:40:22.042                             : en:01:40:22.042
01:45:12.542                             : en:01:45:12.542

Знаете ли вы, что...

  • В основу фильма была положена реальная история французского бизнесмена и аристократа Филиппа Поццо ди Борго, который остался парализованным после несчастного случая 27 июля 1993 года.
  • На создание картины режиссёрский дуэт вдохновила увиденная ими в 2004 году документальная лента, в которой рассказывалось о том, как молодой житель предместья был нанят присматривать за парализованным инвалидом Филиппом Поццо ди Борго.
  • Сам Филипп Поццо ди Борго рассказал о своей истории в вышедшей в 2001 году книге «Второй шанс», которая также послужила источником для сценария картины.
  • Первоначальным выбором на роль Филиппа Поццо ди Борго был Даниель Отой.
  • Несмотря на то, что ему пришлось играть совершенно обычного человека, Омар Си сбросил при подготовке к съёмкам почти пять килограммов веса. Актёр посчитал, что стандартный житель предместья с такой предысторией должен обладать более атлетическим телосложением, чем он.
  • Перед началом работы над проектом режиссёры Оливье Накаш и Эрик Толедано лично посетили живущего в Марокко Филиппа Поццо ди Борго. Знакомство с ним и произнесенная им речь многократно увеличили их желание поставить фильм на основе его истории. Сам Филипп Поццо ди Борго дал им огромное количество информации и советов практически по каждой сцене картины.
  • Незадолго до начала съёмок Франсуа Клюзе лично посетил Филиппа Поццо ди Борго с тем, чтобы получить необходимую информацию для своей роли. В течение некоторого времени актёр наблюдал за его манерой движений, дыхания и речи.
  • На том, чтобы в первую очередь сделать фильм комедией, а не драмой усиленно настаивал сам Филипп Поццо ди Борго. Он не хотел, чтобы основанный на его жизни фильм стал историей сострадания и жалости.
  • Омар Си был первым приглашён на роль в фильме ещё до того, как был написан сценарий.

Награды

Сезар, 2012 год
Победитель (1):
  • Лучший актер (Омар Си)
Номинации ( 8 ):
  • Лучший фильм
  • Лучший актер (Франсуа Клюзе)
  • Лучшая актриса второго плана (Анн Ле Ни)
  • Лучший режиссер (Оливье Накаш, Эрик Толедано)
  • Лучший сценарий
  • Лучшая работа оператора
  • Лучший звук
  • Лучший монтаж

Скриншоты

         
Other forum [Profile] [PM]

Delia

Gender:

Longevity: 10 years

Posts: 1821

Торрент-статистика

Post 24-May-2012 12:56 (after 12 hours)

[Quote]

Русская дорожка DUB LINE , уже есть лицензионная , желательно заменить релиз.

_________________
Человек – это канат, натянутый между животным и сверхчеловеком, – канат над пропастью.
В человеке ценно то, что он мост, а не цель. Фридрих Ницше
Other forum [Profile] [PM]
Display posts from previous:    
Reply to topic

The time now is: Today 10:25

All times are GMT + 3 Hours



You cannot post new topics in this forum
You cannot reply to topics in this forum
You cannot edit your posts in this forum
You cannot delete your posts in this forum
You cannot vote in polls in this forum
You cannot attach files in this forum
You cannot download files in this forum