Today is a free download without charge Download

(OST) Мастер Муси / Mushishi (Mushinone Ketsu) - 2015 г., FLAC (image+.cue), lossless

Reply to topic
 
Author
Message

Omen ®

Longevity: 9 years 1 month

Posts: 181086

Торрент-статистика

Post 06-Aug-2015 12:22

[Quote]

Мастер Муси / Mushishi
Название альбома: Mushinone Ketsu
Композитор: Toshio Masuda
Год выпуска: 2015 г.
Страна: Япония
Аудио кодек: FLAC (*.flac)
Тип рипа: image+.cue
Битрейт аудио: lossless
Продолжительность: 54 минуты
Наличие сканов в содержимом раздачи: да
Треклист:
01. Suzunomi Part1
02. Nushinomichi
03. Souguu
04. Yakusoku
05. Yamainu
06. Ihen
07. Rifujin
08. Suzunomi Part2
09. Mushikudashi
10. Mushinoutage
11. Suzunoshizuku
12. Yuugure
13. Nagori
14. Matsuro
15. Ishindenshin
16. Kizuna
17. Hazama
18. Angya
19. Rifujin Part2
20. Kaya
21. Gyakushin
22. Ketsu

Лог создания рипа

Exact Audio Copy V1.1 from 23. June 2015
EAC extraction logfile from 5. August 2015, 21:58
Unknown Artist / Unknown Title
Used drive : TSSTcorpBDDVDW SE-506AB Adapter: 1 ID: 0
Read mode : SecureUtilize accurate stream : YesDefeat audio cache : YesMake use of C2 pointers : No
Read offset correction : 6Overread into Lead-In and Lead-Out : NoFill up missing offset samples with silence : YesDelete leading and trailing silent blocks : NoNull samples used in CRC calculations : YesUsed interface : Native Win32 interface for Win NT & 2000
Used output format : Internal WAV RoutinesSample format : 44.100 Hz; 16 Bit; Stereo
TOC of the extracted CD
Track | Start | Length | Start sector | End sector --------------------------------------------------------- 1 | 0:00.00 | 1:15.49 | 0 | 5673 2 | 1:15.49 | 1:03.39 | 5674 | 10437 3 | 2:19.13 | 0:38.04 | 10438 | 13291 4 | 2:57.17 | 3:49.40 | 13292 | 30506 5 | 6:46.57 | 0:50.56 | 30507 | 34312 6 | 7:37.38 | 2:57.30 | 34313 | 47617 7 | 10:34.68 | 2:18.48 | 47618 | 58015 8 | 12:53.41 | 1:27.17 | 58016 | 64557 9 | 14:20.58 | 1:35.72 | 64558 | 71754 10 | 15:56.55 | 5:59.61 | 71755 | 98740 11 | 21:56.41 | 3:49.44 | 98741 | 115959 12 | 25:46.10 | 2:37.25 | 115960 | 127759 13 | 28:23.35 | 2:01.04 | 127760 | 136838 14 | 30:24.39 | 1:39.05 | 136839 | 144268 15 | 32:03.44 | 3:17.28 | 144269 | 159071 16 | 35:20.72 | 1:09.69 | 159072 | 164315 17 | 36:30.66 | 2:27.43 | 164316 | 175383 18 | 38:58.34 | 2:48.47 | 175384 | 188030 19 | 41:47.06 | 2:28.51 | 188031 | 199181 20 | 44:15.57 | 3:29.14 | 199182 | 214870 21 | 47:44.71 | 2:24.38 | 214871 | 225708 22 | 50:09.34 | 3:52.10 | 225709 | 243118
Range status and errors
Selected range
Filename D:\MUSIC\Unknown Artist - Unknown Title.wav
Peak level 99.3 % Extraction speed 3.8 X Range quality 100.0 % Copy CRC ADC489FA Copy OK
No errors occurred
AccurateRip summary
Track 1 not present in databaseTrack 2 not present in databaseTrack 3 not present in databaseTrack 4 not present in databaseTrack 5 not present in databaseTrack 6 not present in databaseTrack 7 not present in databaseTrack 8 not present in databaseTrack 9 not present in databaseTrack 10 not present in databaseTrack 11 not present in databaseTrack 12 not present in databaseTrack 13 not present in databaseTrack 14 not present in databaseTrack 15 not present in databaseTrack 16 not present in databaseTrack 17 not present in databaseTrack 18 not present in databaseTrack 19 not present in databaseTrack 20 not present in databaseTrack 21 not present in databaseTrack 22 not present in database
None of the tracks are present in the AccurateRip database
End of status report
---- CUETools DB Plugin V2.1.6
[CTDB TOCID: bc5OoOn.sxY8CVWKWTtXifUnHDk-] foundSubmit result: bc5OoOn.sxY8CVWKWTtXifUnHDk- has been confirmedTrack | CTDB Status 1 | (8/8) Accurately ripped 2 | (8/8) Accurately ripped 3 | (8/8) Accurately ripped 4 | (8/8) Accurately ripped 5 | (8/8) Accurately ripped 6 | (8/8) Accurately ripped 7 | (8/8) Accurately ripped 8 | (8/8) Accurately ripped 9 | (8/8) Accurately ripped 10 | (8/8) Accurately ripped 11 | (8/8) Accurately ripped 12 | (8/8) Accurately ripped 13 | (8/8) Accurately ripped 14 | (8/8) Accurately ripped 15 | (8/8) Accurately ripped 16 | (8/8) Accurately ripped 17 | (8/8) Accurately ripped 18 | (8/8) Accurately ripped 19 | (8/8) Accurately ripped 20 | (8/8) Accurately ripped 21 | (8/8) Accurately ripped 22 | (8/8) Accurately ripped
Other forum [Profile] [PM]
Display posts from previous:    
Reply to topic

The time now is: Today 14:39

All times are GMT + 3 Hours



You cannot post new topics in this forum
You cannot reply to topics in this forum
You cannot edit your posts in this forum
You cannot delete your posts in this forum
You cannot vote in polls in this forum
You cannot attach files in this forum
You cannot download files in this forum