Today is a free download without charge Download

Discovery. Катастрофа на колесах / Wheels That Fail (Discovery Channel) [2014, HDTVRip] (Серии 1-10)

Reply to topic
 
Author
Message

NarDok ®

Longevity: 8 years 8 months

Posts: 914

Торрент-статистика

Post 05-Aug-2015 22:32

[Quote]

Discovery. Катастрофа на колесах / Wheels That Fail - Телекомпания: США, Discovery Channel
Жанр: Документальный, Телепередача
Описание:
Герои этой программы съехали с катушек – когда они за рулем, это просто катастрофа! Такой подборки видео о происшествиях на колесах вы еще не видели: Discovery Channel выбрал самые смешные, самые опасные и самые захватывающие ролики, где автомобили и мотоциклы сталкиваются, переворачиваются, взрываются, падают в воду, летят под откос – и этот список можно продолжать бесконечно. Эти кадры были запечатлены на дорожные камеры, видеорегистраторы и смартфоны случайных очевидцев, - какие-то из них невозможно смотреть без страха, а какие-то вызывают смех.Вы увидите неудавшиеся трюки каскадеров, примеры неудачного стечения обстоятельств, а также последствия глупого и неумелого вождения – вам даже в голову не придет, на что порой решаются горе-водители. Расплата не заставляет себя ждать: тачка вдребезги, а над ее владельцем смеются миллионы зрителей.
Продолжительность: Серия по ~00:22:00
Качество видео: HDTVRip
Перевод: Одноголосый закадровый, профессиональный
Видео: Xvid, 720x400, ~1540 Кбит/сек
Аудио: AC3, 2 ch, 192 Кбит/cек

Mediainfo:

Код:
Общее
Формат                                   : AVI
Формат/Информация                        : Audio Video Interleave
Размер файла                             : 274 Мбайт
Продолжительность                        : 21 м.
Общий поток                              : 1743 Кбит/сек
Программа кодирования                    : VirtualDubMod 1.5.10.3 | [url=http://www.virtualdub-fr.org]www.virtualdub-fr.org[/url] || (build 2550/release)
Библиотека кодирования                   : VirtualDubMod build 2550/release
Видео
Идентификатор                            : 0
Формат                                   : MPEG-4 Visual
Профиль формата                          : Advanced [email protected]
Параметр BVOP формата                    : 1
Параметр QPel формата                    : Нет
Параметр GMC формата                     : Без точки перехода
Параметр матрицы формата                 : Default (H.263)
Идентификатор кодека                     : XVID
Идентификатор кодека/Подсказка           : XviD
Продолжительность                        : 21 м.
Битрейт                                  : 1540 Кбит/сек
Ширина                                   : 720 пикселей
Высота                                   : 400 пикселей
Соотношение сторон                       : 16:9
Частота кадров                           : 30,000 кадров/сек
Цветовое пространство                    : YUV
Субдискретизация насыщенности            : 4:2:0
Битовая глубина                          : 8 бит
Тип развёртки                            : Прогрессивная
Метод сжатия                             : С потерями
Бит/(Пиксели*Кадры)                      : 0.178
Размер потока                            : 242 Мбайт (88%)
Библиотека кодирования                   : XviD 1.2.1 (UTC 2008-12-04)
Аудио
Идентификатор                            : 1
Формат                                   : AC-3
Формат/Информация                        : Audio Coding 3
Расширение режима                        : CM (complete main)
Параметр Endianness формата              : Big
Идентификатор кодека                     : 2000
Продолжительность                        : 21 м.
Вид битрейта                             : Постоянный
Битрейт                                  : 192 Кбит/сек
Каналы                                   : 2 канала
Расположение каналов                     : Front: L R
Частота                                  : 48,0 КГц
Метод сжатия                             : С потерями
Размер потока                            : 30,2 Мбайт (11%)
Выравнивание                             : Разделение по промежуткам
Продолжительность промежутка             : 33  мс. (1,00 видеокадр)
Время предзагрузки промежутка            : 500  мс.
Скриншоты:
       

_________________

Other forum [Profile] [PM]
Display posts from previous:    
Reply to topic

The time now is: Today 19:13

All times are GMT + 3 Hours



You cannot post new topics in this forum
You cannot reply to topics in this forum
You cannot edit your posts in this forum
You cannot delete your posts in this forum
You cannot vote in polls in this forum
You cannot attach files in this forum
You cannot download files in this forum