Today is a free download without charge Download

Белоснежка: Месть гномов / Mirror Mirror (Тарсем Синх / Tarsem Singh) [2012, США, фэнтези, драма, комедия, приключения, DVD9] R5 «Парадиз Медиа»

Reply to topic
 
Author
Message

Koralina ®

Longevity: 9 years 7 months

Posts: 994

Location: Lithuania

Торрент-статистика

Post 22-May-2012 22:07

[Quote]

Белоснежка: Месть гномов / Mirror Mirror«Новые страницы любимой сказки» Страна: США
Студия: Citizen Snow Film Productions, Goldmann Pictures, Misha Films, Rat Entertainment, Relativity Media, Yuk Films
Жанр: фэнтези, драма, комедия, приключения
Год выпуска: 2012
Мировая премьера: 15 марта 2012
Российская премьера: 15 марта 2012, «Парадиз»
Дата выхода DVD: 29 мая 2012, «Парадиз Медиа»
Дата выхода Blu-Ray: 29 мая 2012, «Парадиз Медиа»
Продолжительность: 01:43:53
Перевод: Профессиональный (дублированный) [Лицензия]
Cубтитры: нет
Режиссер: Тарсем Синх / Tarsem Singh
В ролях: Джулия Робертс, Лили Коллинз, Шон Бин, Арми Хаммер, Натан Лейн, Джордан Прентис, Марк Повинелли, Джо Гнофо, Дэнни Вудберн, Себастьян Сарасено, Мартин Клеббэ
Описание: Злая Королева, мечтающая выйти замуж за красивого и богатого Принца, хитростью выдворяет из дворца Белоснежку и берет власть в свои руки. Но милая девушка не погибла в темном дремучем лесу, а связалась с бандой гномов-разбойников. Вместе они отомстят Злодейке
Бонусы: Смотрите на DVD

Качество: DVD9 R5
Формат: DVD-Video
Видео кодек: MPEG2
Аудио кодек: AC3
Видео: PAL 16:9 (720x576(0.820)) MPEG Video, 25,000 кадр/сек, 8500 Кбит/сек
Аудио #1: Russian (Dolby AC3, 6 ch) 384 Кбит/сек, 48,0 КГц
Аудио #2: Russian (Dolby AC3, 2 ch) 192 Кбит/сек, 48,0 КГц

DVDInfo

Title:
Size: 7.08 Gb ( 7 419 432 KBytes ) - DVD-9
Enabled regions: 1, 2, 3, 4, 5, 6, 7, 8
VTS_01 :
Play Length: 00:00:01+01:43:51
Video: PAL 16:9 (720x576) VBR, Auto Pan&Scan
Audio:
Russian (Dolby AC3, 6 ch)
Russian (Dolby AC3, 2 ch)
VTS_02 :
Play Length: 00:00:01+00:00:11
Video: PAL 16:9 (720x576) VBR, Auto Pan&Scan
Audio:
Russian (Dolby AC3, 2 ch)
VTS_03 :
Play Length: 00:00:01+00:00:17
Video: PAL 16:9 (720x576) VBR, Auto Pan&Scan
Audio:
Russian (Dolby AC3, 2 ch)
VTS_04 :
Play Length: 00:00:01+00:01:03
Video: PAL 16:9 (720x576) VBR, Auto Pan&Scan
Audio:
Russian (Dolby AC3, 2 ch)
VTS_05 :
Play Length: 00:00:01+00:02:00
Video: PAL 16:9 (720x576) VBR, Auto Pan&Scan
Audio:
Russian (Dolby AC3, 2 ch)
Menu Video:
NTSC 4:3 (720x480) VBR
Auto Pan&Scan, Auto Letterboxed
Menu Russian Language Unit :
Root Menu
Angle menu

MediaInfo

Общее
Полное имя : J:\Новинки 2012\Belosnejka.Mestb.Gnomov.2012.DVD9\VIDEO_TS\VTS_01_2.VOB
Формат : MPEG-PS
Размер файла : 1024 Мбайт
Продолжительность : 15 м.
Общий поток : 9226 Кбит/сек
Видео
Идентификатор : 224 (0xE0)
Формат : MPEG Video
Версия формата : Version 2
Профиль формата : [email protected]
Параметр BVOP формата : Да
Параметр матрицы формата : Выборочная
Параметр GOP формата : M=3, N=12
Продолжительность : 15 м.
Битрейт : 8500 Кбит/сек
Ширина : 720 пикселей
Высота : 576 пикселей
Соотношение сторон : 16:9
Частота кадров : 25,000 кадров/сек
Стандарт вещания : PAL
Цветовое пространство : YUV
Субдискретизация насыщенности : 4:2:0
Битовая глубина : 8 бит
Тип развёртки : Чересстрочная
Порядок развёртки : Верхнее поле первое
Метод сжатия : С потерями
Бит/(Пиксели*Кадры) : 0.820
Размер потока : 939 Мбайт (92%)
Основные цвета : BT.470-2 System B, BT.470-2 System G
Характеристики трансфера : BT.470-2 System B, BT.470-2 System G
Коэффициенты матрицы : SMPTE 170M
Аудио #1
Идентификатор : 189 (0xBD)-128 (0x80)
Формат : AC-3
Формат/Информация : Audio Coding 3
Расширение режима : CM (complete main)
Параметр Endianness формата : Big
Режим смешивания : DVD-Video
Продолжительность : 15 м.
Вид битрейта : Постоянный
Битрейт : 384 Кбит/сек
Каналы : 6 каналов
Расположение каналов : Front: L C R, Side: L R, LFE
Частота : 48,0 КГц
Битовая глубина : 16 бит
Метод сжатия : С потерями
Задержка видео : -576 мс.
Размер потока : 42,6 Мбайт (4%)
Аудио #2
Идентификатор : 189 (0xBD)-129 (0x81)
Формат : AC-3
Формат/Информация : Audio Coding 3
Расширение режима : CM (complete main)
Параметр Endianness формата : Big
Режим смешивания : DVD-Video
Продолжительность : 15 м.
Вид битрейта : Постоянный
Битрейт : 192 Кбит/сек
Каналы : 2 канала
Расположение каналов : Front: L R
Частота : 48,0 КГц
Битовая глубина : 16 бит
Метод сжатия : С потерями
Задержка видео : -512 мс.
Размер потока : 21,3 Мбайт (2%)

Скриншоты меню

     

Скриншоты фильма

                   

_________________
Other forum [Profile] [PM]
Display posts from previous:    
Reply to topic

The time now is: Today 01:23

All times are GMT + 3 Hours



You cannot post new topics in this forum
You cannot reply to topics in this forum
You cannot edit your posts in this forum
You cannot delete your posts in this forum
You cannot vote in polls in this forum
You cannot attach files in this forum
You cannot download files in this forum