Today is a free download without charge Download

Орфей / Orpheus / Orphée [ Жан Кокто (1950)фэнтези, драма, мелодрама, 720p BDRip ]

Reply to topic
 
Author
Message

Delia ®

Gender:

Longevity: 10 years

Posts: 1821

Торрент-статистика

Post 22-May-2012 19:17

[Quote]

Орфей / Orphee--
Год выпуска: 1950
Страна: Франция
Жанр: фэнтези, драма, мелодрама, ...
Продолжительность: 01:36:01
Перевод: Профессиональный (дублированный)
Субтитры: Russian , Rnglish (srt)
Режиссер: Жан Кокто
Сценарий: Жан Кокто
Продюсер: Андре Полве
Оператор: Николя Айе
Композитор: Жорж Орик
Художник: Марсель Эскоффер, Albert Volper
Монтаж: Жаклин Садуль- В ролях: Жан Маре (Jean Marais), Франсуа Перье (François Perier), Мария Казарес (Maria Casares), Мари Деа (Marie Dea), Анри Кремьё (Henri Cremieux), Жюльетт Греко (Juliette Greco), Роже Блен (Roger Blin), Эдуард Дермит (Edouard Dermithe), Рене Ворм (Rene Worms), Рэймонд Форе (Raymond Faure), Пьер Бертен (Pierre Bertin), Жак Варенн (Jacques Varennes), Андре Карнеж (Andre Carnege), Клод Мориак (Claude Mauriac), Филипп Бордье (Philippe Bordier), Клод Борелли (Claude Borelli), Жан Кокто (Jean Cocteau), Рене Козима (Renee Cosima), Жак Дониоль-Валькроз (Jacques Doniol-Valcroze), Рене Лакур (Rene Lacourt)
Описание: Знаменитый поэт Орфей пресыщен жизнью и славой. Все меняет встреча с Принцессой Ада. Она и сама влюбляется в Орфея, а ее слуга Артебиз — в его жену Эвридику. Странный любовный четырехугольник обречен. Движимая запретной для нее любовью, Принцесса забирает Эвридику в царство Тьмы, а Орфей с Артебизом пускаются в погоню...-Премьера (мир): 1 марта 1950-- --Качество: BDRip
Формат: MKV
Видео кодек: H.264 (AVC)
Аудио кодеk: AC3
Видео: 960x720 (4:3), 23.976 fps, AVC, 5 556 Kbps
Аудио: AC3, 192 Kbps, 48.0 KHz, 2 ch |Дубляж, Киностудия им. Горького
Аудио #2: AC3, 192 Kbps, 48.0 KHz, 2 ch, |Многоголосый закадровый, Cinema Prestige|
Аудио #3: AC3, 192 Kbps, 48.0 KHz, 2 ch |Многоголосый закадровый|
Аудио #4: AC3, 384 Kbps, 48.0 KHz, 1 ch | French

МедиаИнфо

Код:
бщее
Уникальный идентификатор         : 203017555746915346960098297740159581134 (0x98BBC24CD617E17089A9576DFAAF7BCE)
Полное имя                       : E:\торрент\Orpheus (1950) 720 .mkv
Формат                           : Matroska
Размер файла                     : 4,37 Гбайт
Продолжительность                : 1 ч. 36 м.
Общий поток                      : 6517 Кбит/сек
Дата кодирования                 : UTC 2012-05-22 12:39:41
Программа кодирования            : mkvmerge v5.4.0 ('Piper') built on Mar 10 2012 13:34:39
Библиотека кодирования           : libebml v1.2.3 + libmatroska v1.3.0
Видео
Идентификатор                    : 1
Формат                           : AVC
Формат/Информация                : Advanced Video Codec
Профиль формата                  : [email protected]
Параметр CABAC формата           : Да
Параметр ReFrames формата        : 10 кадров
Идентификатор кодека             : V_MPEG4/ISO/AVC
Продолжительность                : 1 ч. 36 м.
Битрейт                          : 5556 Кбит/сек
Ширина                           : 960 пикс.
Высота                           : 720 пикс.
Соотношение сторон               : 4:3
Частота кадров                   : 23,976 кадр/сек
Цветовое пространство            : YUV
Подвыборка цветности             : 4:2:0
Битовая глубина                  : 8 бит
Тип развёртки                    : Прогрессивная
Бит/(Пиксели*Кадры)              : 0.335
Размер потока                    : 3,64 Гбайт (83%)
Библиотека кодирования           : x264 core 122 r2184 5c85e0a
Настройки программы              : cabac=1 / ref=10 / deblock=1:-3:-2 / analyse=0x3:0x113 / me=umh / subme=10 / psy=1 / psy_rd=0.90:0.20 / mixed_ref=1 / me_range=48 / chroma_me=1 / trellis=2 / 8x8dct=1 / cqm=0 / deadzone=21,11 / fast_pskip=0 / chroma_qp_offset=-3 / threads=6 / sliced_threads=0 / nr=0 / decimate=1 / interlaced=0 / bluray_compat=0 / constrained_intra=0 / bframes=10 / b_pyramid=2 / b_adapt=2 / b_bias=0 / direct=3 / weightb=1 / open_gop=0 / weightp=2 / keyint=240 / keyint_min=23 / scenecut=40 / intra_refresh=0 / rc=2pass / mbtree=0 / bitrate=5556 / ratetol=1.0 / qcomp=0.70 / qpmin=0 / qpmax=69 / qpstep=4 / cplxblur=20.0 / qblur=0.5 / ip_ratio=1.40 / pb_ratio=1.30 / aq=2:0.90
Язык                             : English
Основные цвета                   : BT.709-5, BT.1361, IEC 61966-2-4, SMPTE RP177
Характеристики трансфера         : BT.709-5, BT.1361
Коэффициенты матрицы             : BT.709-5, BT.1361, IEC 61966-2-4 709, SMPTE RP177
Аудио #1
Идентификатор                    : 2
Формат                           : AC-3
Формат/Информация                : Audio Coding 3
Расширение режима                : CM (complete main)
Идентификатор кодека             : A_AC3
Продолжительность                : 1 ч. 36 м.
Вид битрейта                     : Постоянный
Битрейт                          : 192 Кбит/сек
Каналы                           : 2 канала
Расположение каналов             : Front: L R
Частота                          : 48,0 КГц
Битовая глубина                  : 16 бит
Метод сжатия                     : С потерями
Размер потока                    : 132 Мбайт (3%)
Заголовок                        : DUB
Язык                             : Russian
Аудио #2
Идентификатор                    : 3
Формат                           : AC-3
Формат/Информация                : Audio Coding 3
Расширение режима                : CM (complete main)
Идентификатор кодека             : A_AC3
Продолжительность                : 1 ч. 36 м.
Вид битрейта                     : Постоянный
Битрейт                          : 192 Кбит/сек
Каналы                           : 2 канала
Расположение каналов             : Front: L R
Частота                          : 48,0 КГц
Битовая глубина                  : 16 бит
Метод сжатия                     : С потерями
Размер потока                    : 132 Мбайт (3%)
Заголовок                        : MVO-Cinema Prestige
Язык                             : Russian
Аудио #3
Идентификатор                    : 4
Формат                           : AC-3
Формат/Информация                : Audio Coding 3
Расширение режима                : CM (complete main)
Идентификатор кодека             : A_AC3
Продолжительность                : 1 ч. 36 м.
Вид битрейта                     : Постоянный
Битрейт                          : 192 Кбит/сек
Каналы                           : 2 канала
Расположение каналов             : Front: L R
Частота                          : 48,0 КГц
Битовая глубина                  : 16 бит
Метод сжатия                     : С потерями
Размер потока                    : 132 Мбайт (3%)
Заголовок                        : MVO
Язык                             : Russian
Аудио #4
Идентификатор                    : 5
Формат                           : AC-3
Формат/Информация                : Audio Coding 3
Расширение режима                : CM (complete main)
Идентификатор кодека             : A_AC3
Продолжительность                : 1 ч. 36 м.
Вид битрейта                     : Постоянный
Битрейт                          : 384 Кбит/сек
Каналы                           : 1 канал
Расположение каналов             : Front: C
Частота                          : 48,0 КГц
Битовая глубина                  : 16 бит
Метод сжатия                     : С потерями
Размер потока                    : 264 Мбайт (6%)
Язык                             : French
Текст #1
Идентификатор                    : 6
Формат                           : UTF-8
Идентификатор кодека             : S_TEXT/UTF8
Идентификатор кодека/Информация  : UTF-8 Plain Text
Язык                             : Russian
Текст #2
Идентификатор                    : 7
Формат                           : UTF-8
Идентификатор кодека             : S_TEXT/UTF8
Идентификатор кодека/Информация  : UTF-8 Plain Text
Язык                             : English
Меню
00:00:00.000                     : en:Chapter 01
00:03:18.406                     : en:Chapter 02
00:10:56.697                     : en:Chapter 03
00:13:48.744                     : en:Chapter 04
00:19:07.354                     : en:Chapter 05
00:26:56.573                     : en:Chapter 06
00:31:08.283                     : en:Chapter 07
00:37:55.815                     : en:Chapter 08
00:43:51.128                     : en:Chapter 09
00:51:48.772                     : en:Chapter 10
00:58:32.759                     : en:Chapter 11
01:01:24.514                     : en:Chapter 12
01:07:45.436                     : en:Chapter 13
01:12:42.399                     : en:Chapter 14
01:19:34.060                     : en:Chapter 15
01:24:35.945                     : en:Chapter 16
01:33:07.123                     : en:Chapter 17
01:36:01.547                     : en:Chapter 18

Знаете ли Вы, что...

» Большинство сцен загробного мира снято в развалинах военной академии.
» Открывающие титры нарисовал сам Кокто.
» Сцена в Кафе Поэтов должна была быть снята с набранной массовкой. Но Кокто нашел их слишком самодовольными и сконцентрированными на себе, уволил и набрал обычных богемных парижан. Они выглядели естественно и без проблем провели два дня, полностью удовлетворив Кокто.
» Марлен Дитрих и Грета Гарбо хотели играть загадочную Принцессу. Но их кандидатуры были отклонены.


Скриншоты

[      
     

_________________
Человек – это канат, натянутый между животным и сверхчеловеком, – канат над пропастью.
В человеке ценно то, что он мост, а не цель. Фридрих Ницше
Other forum [Profile] [PM]
Display posts from previous:    
Reply to topic

The time now is: Today 03:03

All times are GMT + 3 Hours



You cannot post new topics in this forum
You cannot reply to topics in this forum
You cannot edit your posts in this forum
You cannot delete your posts in this forum
You cannot vote in polls in this forum
You cannot attach files in this forum
You cannot download files in this forum