Today is a free download without charge Download

Джон Картер / John Carter (Эндрю Стэнтон) [2012, Фантастика, фэнтези, боевик, приключения, BDRip720] Лицензия | R.G. 20th Century Fox

Reply to topic
 
Author
Message

BoxeR ®

Gender:

Longevity: 9 years

Posts: 423

Торрент-статистика

Post 19-May-2012 21:46

[Quote]

-Джон Картер / John Carter-- Год выпуска: 2012
Выпущено: США
Жанр: Фантастика, фэнтези, боевик, приключения
Продолжительность: 02:12:01
Перевод: Профессиональный (полное дублирование) Лицензия + 2 вида субтитров, полные и на марсианскую речь--Режиссер: Эндрю Стэнтон--В ролях: Тейлор Китч, Линн Коллинз, Саманта Мортон, Уиллем Дефо, Томас Хейден Чёрч, Марк Стронг, Кирен Хайдз, Доминик Уэст, Джеймс Пьюрфой, Брайан Крэнстон и др--Описание: Ветеран Гражданской войны в США Джон Картер против своей воли оказывается на Марсе, где попадает в плен к воинственным четырехметровым туземцам. Картеру предстоит не только спастись самому, но и спасти принцессу Дею Торис из Гелиума


Ripped by Mike Tyson

-Семпл: http://multi-up.com/704748
Качество: BDRip720
Формат: MKV
Видео кодек: H.264
Аудио кодек: AC3
Видео: 1280x534 (2.40:1), 23.976 fps, x264 MPEG-4 ~5500 kbps avg, 0.336 bit/pixel
Аудио 1: Russian 48 kHz, AC3, 6 ch, ~384 kbps Лицензия
--

MediaInfo

бщее
Уникальный идентификатор : 231834825884860778978979325762678142286 (0xAE69C369BFA3A7C88DA86FC9F619B54E)
Полное имя : D:\Джон Картер (R.G. 20th Century Fox)\Джон Картер (R.G. 20th Century Fox).mkv
Формат : Matroska
Версия формата : Version 2
Размер файла : 5,43 Гбайт
Продолжительность : 2 ч. 12 м.
Общий поток : 5884 Кбит/сек
Дата кодирования : UTC 2012-05-21 15:21:54
Программа кодирования : mkvmerge v5.5.0 ('Healer') built on Apr 6 2012 21:43:24
Библиотека кодирования : libebml v1.2.3 + libmatroska v1.3.0
Видео
Идентификатор : 1
Формат : AVC
Формат/Информация : Advanced Video Codec
Профиль формата : [email protected]
Параметр CABAC формата : Да
Параметр ReFrames формата : 12 кадров
Режим смешивания : Header stripping
Идентификатор кодека : V_MPEG4/ISO/AVC
Продолжительность : 2 ч. 12 м.
Битрейт : 5500 Кбит/сек
Ширина : 1280 пикселей
Высота : 534 пикселя
Соотношение сторон : 2,40:1
Частота кадров : 23,976 кадра/сек
Цветовое пространство : YUV
Субдискретизация насыщенности : 4:2:0
Битовая глубина : 8 бит
Тип развёртки : Прогрессивная
Бит/(Пиксели*Кадры) : 0.336
Размер потока : 4,96 Гбайт (91%)
Библиотека кодирования : x264 core 124 r2197 69a0443
Настройки программы : cabac=1 / ref=12 / deblock=1:-3:-3 / analyse=0x3:0x113 / me=umh / subme=10 / psy=1 / psy_rd=1.10:0.00 / mixed_ref=1 / me_range=32 / chroma_me=1 / trellis=2 / 8x8dct=1 / cqm=0 / deadzone=21,11 / fast_pskip=0 / chroma_qp_offset=-2 / threads=18 / sliced_threads=0 / nr=0 / decimate=0 / interlaced=0 / bluray_compat=0 / constrained_intra=0 / bframes=8 / b_pyramid=2 / b_adapt=2 / b_bias=0 / direct=3 / weightb=1 / open_gop=0 / weightp=2 / keyint=240 / keyint_min=24 / scenecut=40 / intra_refresh=0 / rc_lookahead=240 / rc=2pass / mbtree=1 / bitrate=5500 / ratetol=1.0 / qcomp=0.70 / qpmin=0 / qpmax=69 / qpstep=4 / cplxblur=20.0 / qblur=0.5 / ip_ratio=1.40 / aq=1:0.90
Язык : English
Default : Да
Forced : Нет
Аудио
Идентификатор : 2
Формат : AC-3
Формат/Информация : Audio Coding 3
Расширение режима : CM (complete main)
Режим смешивания : Header stripping
Идентификатор кодека : A_AC3
Продолжительность : 2 ч. 12 м.
Вид битрейта : Постоянный
Битрейт : 384 Кбит/сек
Каналы : 6 каналов
Расположение каналов : Front: L C R, Side: L R, LFE
Частота : 48,0 КГц
Битовая глубина : 16 бит
Метод сжатия : С потерями
Размер потока : 363 Мбайт (7%)
Заголовок : Дубляж
Язык : Russian
Default : Да
Forced : Нет

Скриншоты

         
--


Last edited by BoxeR on 2012-05-21 19:51; edited 9 times in total
Other forum [Profile] [PM]

KirovSOFT

Gender:

Longevity: 9 years

Posts: 998

Location: Кировская область -Оричи

Торрент-статистика

Post 20-May-2012 06:26 (after 8 hours)

[Quote]

дай скорости

_________________
Other forum [Profile] [PM]

Koralina

Longevity: 9 years 7 months

Posts: 994

Location: Lithuania

Торрент-статистика

Post 21-May-2012 09:57 (after 1 day 3 hours)

[Quote]

Mike Tyson, BDInfo вставьте в тему.

_________________
Other forum [Profile] [PM]
Display posts from previous:    
Reply to topic

The time now is: Today 06:48

All times are GMT + 3 Hours



You cannot post new topics in this forum
You cannot reply to topics in this forum
You cannot edit your posts in this forum
You cannot delete your posts in this forum
You cannot vote in polls in this forum
You cannot attach files in this forum
You cannot download files in this forum