Today is a free download without charge Download

Пожиратели / Intruders (Хуан Карлос Фреснадильо / Juan Carlos Fresnadillo) [2011, США, Великобритания, Испания, ужасы, триллер, DVD9] R5 «Двадцатый Век Фокс СНГ»

Reply to topic
 
Author
Message

Koralina ®

Longevity: 9 years 7 months

Posts: 994

Location: Lithuania

Торрент-статистика

Post 19-May-2012 17:36

[Quote]

Пожиратели / Intruders«Ваш страх разбудит их» Страна: США, Великобритания, Испания
Студия: Antena 3 Films, Apaches Entertainment, Canal+ España, Ministerio de Educación y Cultura (ICAA), Universal Pictures International, Universal Pictures International (UPI)
Жанр: ужасы, триллер
Год выпуска: 2011
Мировая премьера: 12 сентября 2011
Дата выхода DVD: 17 мая 2012, «Двадцатый Век Фокс СНГ»
Продолжительность: 01:35:53
Перевод: Профессиональный (дублированный) [Лицензия]
Cубтитры: английские, русские, польские, латышские, литовские, эстонские, украинские
Оригинальная аудиодорожка: английский
Режиссер: Хуан Карлос Фреснадильо / Juan Carlos Fresnadillo
В ролях: Клайв Оуэн, Кэрис Ван Хаутен, Даниэль Брюль, Керри Фокс, Элла Пурнелла, Лолита Чакрабарти, Пилар Лопес де Айяла, Марк Уингетт, Эктор Альтерио, Адам Лиз
Описание: В Мадриде 8-летний мальчик Хуан рассказывает родителям жуткие истории. Его мать, Луиза, предполагает, что богатое воображение отрока, подпитанное яркими и реалистичными ночными кошмарами являются основной причиной нарушения сна и психического надлома ребенка. Однако Хуан продолжает настаивать на том, что жуткие существа вовсе не плод его больного воображения.
В то же самое время в Лондоне 11-летняя Миа рассказывает сверстниками устрашающие истории об инфернальном чудовище, которое ищет контакта с миром людей через комнату маленького мальчика где-то в материковой части Европы…
Бонусы: Удаленные сцены, Реальность против фантазии, Две истории, два города, Режиссер, История создания фильма и персонажей

Качество: DVD9 R5
Формат: DVD-Video
Видео кодек: MPEG2
Аудио кодек: AC3
Видео: PAL 16:9 (720x576(0.582)) MPEG Video, 25,000 кадр/сек, 6032 Кбит/сек
Аудио #1: English (Dolby AC3, 6 ch) 448 Кбит/сек, 48,0 КГц
Аудио #2: Russian (Dolby AC3, 6 ch) 384 Кбит/сек, 48,0 КГц
Аудио #3: Polish (Dolby AC3, 6 ch) 384 Кбит/сек, 48,0 КГц

DVDInfo

Title:
Size: 6.43 Gb ( 6 741 084 KBytes ) - DVD-9
Enabled regions: 1, 2, 3, 4, 5, 6, 7, 8
VTS_01 :
Play Length: 00:00:23
Video: PAL 16:9 (720x576) VBR, Auto Letterboxed
Audio:
English (Dolby AC3, 6 ch)
VTS_02 :
Play Length: 00:00:14
Video: PAL 16:9 (720x576) VBR, Auto Letterboxed
Audio:
English (Dolby AC3, 6 ch)
VTS_03 :
Play Length:
Video: PAL 16:9 (720x576) VBR, Auto Letterboxed
VTS_04 :
Play Length: 00:00:12
Video: PAL 16:9 (720x576) VBR, Auto Letterboxed
Audio:
English (Dolby AC3, 2 ch)
Subtitles:
English
Russian
Polish
Latvian
Lithuanian
Estonian
Ukrainian
VTS_05 :
Play Length: 00:02:24
Video: PAL 16:9 (720x576) VBR, Auto Letterboxed
Audio:
English (Dolby AC3, 2 ch)
Subtitles:
English
Russian
Polish
Latvian
Lithuanian
Estonian
Ukrainian
VTS_06 :
Play Length: 00:00:08
Video: PAL 16:9 (720x576) VBR, Auto Letterboxed
Audio:
English (Dolby AC3, 2 ch)
VTS_07 :
Play Length: 00:02:02
Video: PAL 16:9 (720x576) VBR, Auto Letterboxed
Audio:
English (Dolby AC3, 2 ch)
Subtitles:
English
Russian
Polish
Latvian
Lithuanian
Estonian
Ukrainian
VTS_08 :
Play Length: 00:02:00
Video: PAL 16:9 (720x576) VBR, Auto Letterboxed
Audio:
English (Dolby AC3, 2 ch)
Subtitles:
English
Russian
Polish
Latvian
Lithuanian
Estonian
Ukrainian
VTS_09 :
Play Length: 00:01:36
Video: PAL 16:9 (720x576) VBR, Auto Letterboxed
Audio:
English (Dolby AC3, 2 ch)
Subtitles:
English
Russian
Polish
Latvian
Lithuanian
Estonian
Ukrainian
VTS_10 :
Play Length:
Video: PAL 16:9 (720x576) VBR, Auto Letterboxed
VTS_11 :
Play Length: 01:35:53
Video: PAL 16:9 (720x576) VBR, Auto Letterboxed
Audio:
English (Dolby AC3, 6 ch)
Russian (Dolby AC3, 6 ch)
Polish (Dolby AC3, 6 ch)
Subtitles:
English
Russian
Polish
Latvian
Lithuanian
Estonian
Ukrainian
English
Russian
Polish
VTS_12 :
Play Length: 00:10:16+00:03:19+00:01:51+00:02:03+00:00:49+00:01:30+00:00:43
Video: PAL 16:9 (720x576) VBR, Auto Letterboxed
Audio:
English (Dolby AC3, 2 ch)
Subtitles:
English
Russian
Polish
English
VTS_13 :
Play Length: 00:02:56
Video: PAL 16:9 (720x576) VBR, Auto Letterboxed
Audio:
English (Dolby AC3, 2 ch)
Subtitles:
English
Russian
Polish
English
VTS_14 :
Play Length: 00:03:02
Video: PAL 16:9 (720x576) VBR, Auto Letterboxed
Audio:
English (Dolby AC3, 2 ch)
Subtitles:
English
Russian
Polish
VTS_15 :
Play Length: 00:02:41
Video: PAL 16:9 (720x576) VBR, Auto Letterboxed
Audio:
English (Dolby AC3, 2 ch)
Subtitles:
English
Russian
Polish
English
VTS_16 :
Play Length: 00:19:01
Video: PAL 16:9 (720x576) VBR, Auto Letterboxed
Audio:
English (Dolby AC3, 2 ch)
Subtitles:
English
Russian
Polish
English

MediaInfo

Общее
Полное имя : J:\Новинки 2012\Pozhirateli.2011.DVD9\VIDEO_TS\VTS_11_1.VOB
Формат : MPEG-PS
Размер файла : 1024 Мбайт
Продолжительность : 19 м.
Режим общего битрейта : Переменный
Общий поток : 7395 Кбит/сек
Видео
Идентификатор : 224 (0xE0)
Формат : MPEG Video
Версия формата : Version 2
Профиль формата : [email protected]
Параметр BVOP формата : Да
Параметр матрицы формата : Выборочная
Продолжительность : 19 м.
Вид битрейта : Переменный
Битрейт : 6032 Кбит/сек
Максимальный битрейт : 9800 Кбит/сек
Ширина : 720 пикселей
Высота : 576 пикселей
Соотношение сторон : 16:9
Частота кадров : 25,000 кадров/сек
Стандарт вещания : PAL
Цветовое пространство : YUV
Субдискретизация насыщенности : 4:2:0
Битовая глубина : 8 бит
Тип развёртки : Прогрессивная
Порядок развёртки : Верхнее поле первое
Метод сжатия : С потерями
Бит/(Пиксели*Кадры) : 0.582
Размер потока : 835 Мбайт (82%)
Аудио #1
Идентификатор : 189 (0xBD)-128 (0x80)
Формат : AC-3
Формат/Информация : Audio Coding 3
Расширение режима : CM (complete main)
Параметр Endianness формата : Big
Режим смешивания : DVD-Video
Продолжительность : 19 м.
Вид битрейта : Постоянный
Битрейт : 448 Кбит/сек
Каналы : 6 каналов
Расположение каналов : Front: L C R, Side: L R, LFE
Частота : 48,0 КГц
Битовая глубина : 16 бит
Метод сжатия : С потерями
Размер потока : 62,0 Мбайт (6%)
Аудио #2
Идентификатор : 189 (0xBD)-129 (0x81)
Формат : AC-3
Формат/Информация : Audio Coding 3
Расширение режима : CM (complete main)
Параметр Endianness формата : Big
Режим смешивания : DVD-Video
Продолжительность : 19 м.
Вид битрейта : Постоянный
Битрейт : 384 Кбит/сек
Каналы : 6 каналов
Расположение каналов : Front: L C R, Side: L R, LFE
Частота : 48,0 КГц
Битовая глубина : 16 бит
Метод сжатия : С потерями
Размер потока : 53,2 Мбайт (5%)
Аудио #3
Идентификатор : 189 (0xBD)-130 (0x82)
Формат : AC-3
Формат/Информация : Audio Coding 3
Расширение режима : CM (complete main)
Параметр Endianness формата : Big
Режим смешивания : DVD-Video
Продолжительность : 19 м.
Вид битрейта : Постоянный
Битрейт : 384 Кбит/сек
Каналы : 6 каналов
Расположение каналов : Front: L C R, Side: L R, LFE
Частота : 48,0 КГц
Битовая глубина : 16 бит
Метод сжатия : С потерями
Размер потока : 53,2 Мбайт (5%)
Текст #1
Идентификатор : 189 (0xBD)-32 (0x20)
Формат : RLE
Формат/Информация : Run-length encoding
Режим смешивания : DVD-Video
Текст #2
Идентификатор : 189 (0xBD)-33 (0x21)
Формат : RLE
Формат/Информация : Run-length encoding
Режим смешивания : DVD-Video
Текст #3
Идентификатор : 189 (0xBD)-34 (0x22)
Формат : RLE
Формат/Информация : Run-length encoding
Режим смешивания : DVD-Video
Текст #4
Идентификатор : 189 (0xBD)-35 (0x23)
Формат : RLE
Формат/Информация : Run-length encoding
Режим смешивания : DVD-Video
Текст #5
Идентификатор : 189 (0xBD)-36 (0x24)
Формат : RLE
Формат/Информация : Run-length encoding
Режим смешивания : DVD-Video
Текст #6
Идентификатор : 189 (0xBD)-37 (0x25)
Формат : RLE
Формат/Информация : Run-length encoding
Режим смешивания : DVD-Video
Текст #7
Идентификатор : 189 (0xBD)-38 (0x26)
Формат : RLE
Формат/Информация : Run-length encoding
Режим смешивания : DVD-Video

Скриншоты меню

           

Скриншоты фильма

                   

Скриншоты доп. материалов

               

_________________
Other forum [Profile] [PM]
Display posts from previous:    
Reply to topic

The time now is: Today 13:24

All times are GMT + 3 Hours



You cannot post new topics in this forum
You cannot reply to topics in this forum
You cannot edit your posts in this forum
You cannot delete your posts in this forum
You cannot vote in polls in this forum
You cannot attach files in this forum
You cannot download files in this forum