Today is a free download without charge Download

Одержимая / The Devil Inside (Уильям Брент Белл / William Brent Bell) [2012, США, ужасы, DVD5] R5 «Новый Диск»

Reply to topic
 
Author
Message

Koralina ®

Longevity: 9 years 7 months

Posts: 994

Location: Lithuania

Торрент-статистика

Post 19-May-2012 17:12

[Quote]

Одержимая / The Devil Inside«No soul is safe.» Страна: США
Студия: Skulley Effects
Жанр: ужасы
Год выпуска: 2012
Мировая премьера: 5 января 2012
Российская премьера: 2 февраля 2012, «Централ Партнершип»
Дата выхода DVD: 21 мая 2012, «Новый Диск»
Дата выхода Blu-Ray: 18 июня 2012, «Новый Диск»
Продолжительность: 01:19:52
Перевод: Профессиональный (дублированный) [Лицензия]
Cубтитры: английские, русские, украинские
Оригинальная аудиодорожка: английский
Режиссер: Уильям Брент Белл / William Brent Bell
В ролях: Фернанда Андраде, Саймон Куотерман, Ивэн Хельмут, Йонут Грама, Сюзен Краули, Бонни Морган, Брайан Джонсон, Престон Джеймс Хиллер, Д.Т. Карни, Мод Бонанни
Описание: В далеком 1989 году в службу 911 поступил звонок от Марии Росси, которая сообщила о том, что жестоко убила трех человек. 20 лет спустя, ее дочь Изабелла пытается выяснить, что же все-таки произошло с ее матерью.
Она отправляется в клинику для душевнобольных преступников в Италии, где находится ее мать, которую считают душевнобольной и одержимой дьяволом. Изабелла обращается за помощью к двум молодым священникам, которые собираются изгнать дьявола из ее матери с помощью нетрадиционной методики, но им придется столкнуться с неведомым доселе злом, ведь Мария одержима сразу четырьмя мощными демонами…

Качество: DVD5 R5
Формат: DVD-Video
Видео кодек: MPEG2
Аудио кодек: AC3
Видео: PAL 16:9 (720x576(0.618)) MPEG Video, 25,000 кадр/сек, 6407 Кбит/сек
Аудио #1: Russian (Dolby AC3, 6 ch) 448 Кбит/сек, 48,0 КГц
Аудио #2: English (Dolby AC3, 6 ch) 448 Кбит/сек, 48,0 КГц

DVDInfo

Title:
Size: 3.94 Gb ( 4 133 574 KBytes ) - DVD-5
Enabled regions: 1, 2, 3, 4, 5, 6, 7, 8
VTS_01 :
Play Length:
Video: PAL 4:3 (720x576) VBR
VTS_02 :
Play Length:
Video: PAL 16:9 (720x576) VBR, Auto Letterboxed
Audio:
English (Dolby AC3, 6 ch)
Russian (Dolby AC3, 6 ch)
Subtitles:
English
Russian
Ukrainian
VTS_03 :
Play Length:
Video: PAL 16:9 (720x576) VBR, Auto Letterboxed
Audio:
English (Dolby AC3, 6 ch)
Russian (Dolby AC3, 6 ch)
Subtitles:
English
Russian
Ukrainian
VTS_04 :
Play Length:
Video: PAL 16:9 (720x576) VBR, Auto Letterboxed
Audio:
English (Dolby AC3, 6 ch)
Russian (Dolby AC3, 6 ch)
Subtitles:
English
Russian
Ukrainian
VTS_05 :
Play Length:
Video: PAL 16:9 (720x576) VBR, Auto Letterboxed
Audio:
English (Dolby AC3, 6 ch)
Russian (Dolby AC3, 6 ch)
Subtitles:
English
Russian
Ukrainian
VTS_06 :
Play Length:
Video: PAL 16:9 (720x576) VBR, Auto Letterboxed
Audio:
English (Dolby AC3, 6 ch)
Russian (Dolby AC3, 6 ch)
Subtitles:
English
Russian
Ukrainian
VTS_07 :
Play Length:
Video: PAL 16:9 (720x576) VBR, Auto Letterboxed
Audio:
English (Dolby AC3, 6 ch)
Russian (Dolby AC3, 6 ch)
Subtitles:
English
Russian
Ukrainian
VTS_08 :
Play Length:
Video: PAL 16:9 (720x576) VBR, Auto Letterboxed
Audio:
English (Dolby AC3, 6 ch)
Russian (Dolby AC3, 6 ch)
Subtitles:
English
Russian
Ukrainian
VTS_09 :
Play Length: 00:00:06+01:19:46
Video: PAL 16:9 (720x576) VBR, Auto Letterboxed
Audio:
English (Dolby AC3, 6 ch)
Russian (Dolby AC3, 6 ch)
Subtitles:
English
Russian
Ukrainian
VTS_10 :
Play Length:
Video: PAL 16:9 (720x576) VBR, Auto Letterboxed
Audio:
English (Dolby AC3, 6 ch)
Russian (Dolby AC3, 6 ch)
Subtitles:
English
Russian
Ukrainian
VTS_11 :
Play Length:
Video: PAL 16:9 (720x576) VBR, Auto Letterboxed
Audio:
English (Dolby AC3, 6 ch)
Russian (Dolby AC3, 6 ch)
Subtitles:
English
Russian
Ukrainian
VTS_12 :
Play Length:
Video: PAL 16:9 (720x576) VBR, Auto Letterboxed
Audio:
English (Dolby AC3, 6 ch)
Russian (Dolby AC3, 6 ch)
Subtitles:
English
Russian
Ukrainian
VTS_13 :
Play Length:
Video: PAL 16:9 (720x576) VBR, Auto Letterboxed
VTS_14 :
Play Length:
Video: PAL 16:9 (720x576) VBR, Auto Letterboxed
VTS_15 :
Play Length:
Video: PAL 16:9 (720x576) VBR, Auto Letterboxed
VTS_16 :
Play Length:
Video: PAL 16:9 (720x576) VBR, Auto Letterboxed
VTS_17 :
Play Length: 00:00:24
Video: PAL 16:9 (720x576) VBR, Auto Pan&Scan
Audio:
Not specified (Dolby AC3, 2 ch)
VTS_18 :
Play Length:
Video: PAL 16:9 (720x576) VBR, Auto Letterboxed
Audio:
Not specified (Dolby AC3, 2 ch)
VTS_19 :
Play Length:
Video: PAL 16:9 (720x576) VBR, Auto Pan&Scan
Audio:
Not specified (Dolby AC3, 2 ch)
VTS_20 :
Play Length: 00:00:05
Video: PAL 16:9 (720x576) VBR, Auto Pan&Scan
Audio:
Not specified (Dolby AC3, 2 ch)

MediaInfo

Общее
Полное имя : J:\Новинки 2012\Oderzhimaja.2012.DVD5\VIDEO_TS\VTS_09_2.VOB
Формат : MPEG-PS
Размер файла : 1024 Мбайт
Продолжительность : 19 м.
Режим общего битрейта : Переменный
Общий поток : 7451 Кбит/сек
Видео
Идентификатор : 224 (0xE0)
Формат : MPEG Video
Версия формата : Version 2
Профиль формата : [email protected]
Параметр BVOP формата : Да
Параметр матрицы формата : Выборочная
Параметр GOP формата : M=3, N=12
Продолжительность : 19 м.
Вид битрейта : Переменный
Битрейт : 6407 Кбит/сек
Максимальный битрейт : 9800 Кбит/сек
Ширина : 720 пикселей
Высота : 576 пикселей
Соотношение сторон : 16:9
Частота кадров : 25,000 кадров/сек
Стандарт вещания : PAL
Цветовое пространство : YUV
Субдискретизация насыщенности : 4:2:0
Битовая глубина : 8 бит
Тип развёртки : Прогрессивная
Порядок развёртки : Верхнее поле первое
Метод сжатия : С потерями
Бит/(Пиксели*Кадры) : 0.618
Размер потока : 880 Мбайт (86%)
Аудио #1
Идентификатор : 189 (0xBD)-128 (0x80)
Формат : AC-3
Формат/Информация : Audio Coding 3
Расширение режима : CM (complete main)
Параметр Endianness формата : Big
Режим смешивания : DVD-Video
Продолжительность : 19 м.
Вид битрейта : Постоянный
Битрейт : 448 Кбит/сек
Каналы : 6 каналов
Расположение каналов : Front: L C R, Side: L R, LFE
Частота : 48,0 КГц
Битовая глубина : 16 бит
Метод сжатия : С потерями
Задержка видео : -616 мс.
Размер потока : 61,6 Мбайт (6%)
Аудио #2
Идентификатор : 189 (0xBD)-129 (0x81)
Формат : AC-3
Формат/Информация : Audio Coding 3
Расширение режима : CM (complete main)
Параметр Endianness формата : Big
Режим смешивания : DVD-Video
Продолжительность : 19 м.
Вид битрейта : Постоянный
Битрейт : 448 Кбит/сек
Каналы : 6 каналов
Расположение каналов : Front: L C R, Side: L R, LFE
Частота : 48,0 КГц
Битовая глубина : 16 бит
Метод сжатия : С потерями
Задержка видео : -616 мс.
Размер потока : 61,6 Мбайт (6%)
Текст #1
Идентификатор : 189 (0xBD)-32 (0x20)
Формат : RLE
Формат/Информация : Run-length encoding
Режим смешивания : DVD-Video
Продолжительность : 19 м.
Задержка видео : 3 с. 240 мс.
Текст #2
Идентификатор : 189 (0xBD)-33 (0x21)
Формат : RLE
Формат/Информация : Run-length encoding
Режим смешивания : DVD-Video
Продолжительность : 19 м.
Задержка видео : 2 с. 920 мс.
Текст #3
Идентификатор : 189 (0xBD)-34 (0x22)
Формат : RLE
Формат/Информация : Run-length encoding
Режим смешивания : DVD-Video
Продолжительность : 19 м.
Задержка видео : 3 с. 240 мс.

Скриншоты меню

         

Скриншоты фильма

                   

_________________
Other forum [Profile] [PM]
Display posts from previous:    
Reply to topic

The time now is: Today 12:14

All times are GMT + 3 Hours



You cannot post new topics in this forum
You cannot reply to topics in this forum
You cannot edit your posts in this forum
You cannot delete your posts in this forum
You cannot vote in polls in this forum
You cannot attach files in this forum
You cannot download files in this forum