Today is a free download without charge Download

Не бойся, я с тобой! (Юлий Гусман) [1981, СССР, музыкальная комедия, HDTV 1080i]

Reply to topic
 
Author
Message

Omen ®

Longevity: 8 years 10 months

Posts: 181086

Торрент-статистика

Post 26-Jul-2015 21:00

[Quote]

Не бойся, я с тобой!
Страна: СССР
Студия: Азербайджан фильм
Жанр: Музыкальная комедия
Год выпуска: 1981
Продолжительность: 02:25:44
Перевод: Не требуется
Cубтитры: нет
Оригинальная аудиодорожка: русский
Режиссёр: Юлий Гусман
В ролях: Лев Дуров, Сергей Юрский, Мухтарбек Кантемиров, Полад Бюль-Бюль Оглы, Гамида Омарова, Гасан Турабов, Мирза Бабаев, Александр Шаровский.
Описание: Циркач (Мухтарбек Кантемиров), скачущий на коне и стреляющий в надувные шарики в руках своего друга и напарника (Лев Дуров), получает письмо о том, что его бабушка тяжело больна. Несмотря на то, что его, возможно, ждет смерть из-за старой кровной мести, он собирается ехать. Дуров, волнуясь за товарища, отправляется вместе с ним. Приключения начинаются после того, как Дуров попросил одного из джигитов снять шапочку в местноми театре, где ставили "Лейла и Меджнун". Тот шапочку снять отказался, и Дуров ее снял собственноручно…
Чего только нет в этой действительно смешной и динамичной комедии — и похищение из-под венца, и погони, и перестрелки, и поединки в стиле восточных единоборств, и благородные рыцари, и подлые разбойники, и сокровища в пещерах, и побеги из тюрьмы.
Семпл: https://yadi.sk/d/qB6zb2qgi4T9F
Качество видео: HDTV 1080i
Формат видео: TS
Видео: H264; 1920x1080 (16:9); 25.000 fps; ~7 813 Kbps
Аудио: MPEG Audio Version 1 Layer 2, 48000Hz, 2 channels stereo 192 Кбит/сек

MediaInfo

General
ID : 1 (0x1)
Complete name : Q:\1__канал__HD\Не бойся, я с тобой.ts
Format : MPEG-TS
File size : 8.57 GiB
Duration : 2h 25mn
Overall bit rate mode : Variable
Overall bit rate : 8 423 Kbps
Video
ID : 2292 (0x8F4)
Menu ID : 1 (0x1)
Format : AVC
Format/Info : Advanced Video Codec
Format profile : [email protected]
Format settings, CABAC : Yes
Format settings, ReFrames : 4 frames
Codec ID : 27
Duration : 2h 25mn
Bit rate : 7 813 Kbps
Width : 1 920 pixels
Height : 1 080 pixels
Display aspect ratio : 16:9
Frame rate : 25.000 fps
Color space : YUV
Chroma subsampling : 4:2:0
Bit depth : 8 bits
Scan type : MBAFF
Bits/(Pixel*Frame) : 0.151
Stream size : 7.95 GiB (93%)
Audio
ID : 2295 (0x8F7)
Menu ID : 1 (0x1)
Format : MPEG Audio
Format version : Version 1
Format profile : Layer 2
Codec ID : 3
Duration : 2h 25mn
Bit rate mode : Constant
Bit rate : 192 Kbps
Channel(s) : 2 channels
Sampling rate : 48.0 KHz
Compression mode : Lossy
Stream size : 200 MiB (2%)
Language : English

Скриншоты


Other forum [Profile] [PM]
Display posts from previous:    
Reply to topic

The time now is: Today 18:37

All times are GMT + 3 Hours



You cannot post new topics in this forum
You cannot reply to topics in this forum
You cannot edit your posts in this forum
You cannot delete your posts in this forum
You cannot vote in polls in this forum
You cannot attach files in this forum
You cannot download files in this forum