Today is a free download without charge Download

Филипп Киркоров - Другой (ДруGOY) (2011) HDRip

Reply to topic
 
Author
Message

Varius ®

Gender:

Longevity: 11 years

Posts: 2428

Location: Hell

Торрент-статистика

Post 19-May-2012 06:44

[Quote]

Филипп Киркоров - Другой (ДруGOY) (2011) HDRip- Русское название: Филипп Киркоров - Другой (ДруGOY)
Оригинальное название: Филипп Киркоров - Другой (ДруGOY)
Год выпуска: 2011
Производство: Россия, Первый канал
Жанр: Поп-музыка, концерт
Перевод: не требуется
Субтитры: отсутствуют
Описание:
Король поп-музыки Филипп Киркоров представляет свое новое творение - шоу "ДруGOY", состоявшееся 7-8 ноября 2011 года в Кремле. Телезрителей ждет потрясающая шоу-программа, изобилующая зрелищными спецэффектами. Сцена Кремля превратится в шестиуровневую конструкцию, сплошь увешанную видеоэкранами. По сценической конструкции высотой с пятиэтажный дом легко и непринужденно будут передвигаться артисты балета. Благодаря видео Филипп окажется то на берегу океана, то один средь усыпанного звездами неба, то вознесется из трюма сцены на пьедестале.
Релиз от:
Продолжительность: 02:39:01
Качество видео: HDRip
Видеокодек: XviD
Битрейт видео: 1508 Кбит/сек
Размер кадра: 720x400
Аудио: Русский, AC3, 448 kb/s (6 ch)-

Треклист

1. Интро
2. Ты все увидишь сам
3. Новый герой
4. Любовь без любви
5. Я отпускаю тебя
6. Снег
7. Верните мне крылья
8. Гибну я
9. Единственная
10. Птица в груди
11. Я такой нежный
12. В этот час
13. Знойные ночи
14. Моя звезда
15. Гимн уходящим мечтам (дуэт с Ани Лорак)
16. Я так люблю тебя
17. Три счастливых дня
18. Полетели
19. Верни мне музыку
20. Я эту жизнь тебе отдам
21. Нелепо разошлись
22. Жестокая любовь
23. Личное дело
24. Jealozy
25. Дива
26. Голос (дуэт с Аидой Гарифуллиной)
27. Королева
28. Я за тебя умру
29. Без тебя
30. Я просто счастлив
31.В саду Эдемовом
32. Диско бой
33. Диско партизаны
34. Кристина
35. Просто подари
36. Мне не жаль
37. Струны
-

MI

Код:
Общее
Полное имя                               : E:\Загрузка\Kirkorov.Drugoy.2011.HDRip.avi
Формат                                   : AVI
Формат/Информация                        : Audio Video Interleave
Профиль формата                          : OpenDML
Размер файла                             : 2,18 Гбайт
Продолжительность                        : 2 ч. 39 м.
Общий поток                              : 1964 Кбит/сек
Название фильма                          : Kirkorov.Drugoy.2011.HDRip
Программа кодирования                    : VirtualDubMod 1.5.10.3 | www.virtualdub-fr.org || (build 2550/release)
Видео
Идентификатор                            : 0
Формат                                   : MPEG-4 Visual
Профиль формата                          : Advanced [email protected]
Параметр BVOP формата                    : 2
Параметр QPel формата                    : Нет
Параметр GMC формата                     : Без точки перехода
Параметр матрицы формата                 : Выборочная
Идентификатор кодека                     : XVID
Идентификатор кодека/Подсказка           : XviD
Продолжительность                        : 2 ч. 39 м.
Битрейт                                  : 1503 Кбит/сек
Ширина                                   : 720 пикселей
Высота                                   : 400 пикселей
Соотношение сторон                       : 16:9
Частота кадров                           : 25,000 кадров/сек
Цветовое пространство                    : YUV
Субдискретизация насыщенности            : 4:2:0
Битовая глубина                          : 8 бит
Тип развёртки                            : Прогрессивная
Метод сжатия                             : С потерями
Бит/(Пиксели*Кадры)                      : 0.209
Размер потока                            : 1,67 Гбайт (77%)
Библиотека кодирования                   : XviD 1.2.1 (UTC 2008-12-04)
Аудио
Идентификатор                            : 1
Формат                                   : AC-3
Формат/Информация                        : Audio Coding 3
Расширение режима                        : CM (complete main)
Параметр Endianness формата              : Big
Идентификатор кодека                     : 2000
Продолжительность                        : 2 ч. 39 м.
Вид битрейта                             : Постоянный
Битрейт                                  : 448 Кбит/сек
Каналы                                   : 6 каналов
Расположение каналов                     : Front: L C R, Side: L R, LFE
Частота                                  : 48,0 КГц
Битовая глубина                          : 16 бит
Метод сжатия                             : С потерями
Размер потока                            : 510 Мбайт (23%)
Выравнивание                             : Разделение по промежуткам
Продолжительность промежутка             : 40  мс. (1,00 видеокадр)
Время предзагрузки промежутка            : 500  мс.
-Cкриншоты:
         
         

_________________

Создавая "Новую папку", не считайте себя Создателем - это право Вам дано Админом


Other forum [Profile] [PM]
Display posts from previous:    
Reply to topic

The time now is: Today 01:59

All times are GMT + 3 Hours



You cannot post new topics in this forum
You cannot reply to topics in this forum
You cannot edit your posts in this forum
You cannot delete your posts in this forum
You cannot vote in polls in this forum
You cannot attach files in this forum
You cannot download files in this forum