Today is a free download without charge Download

Время убивать / A Time to Kill (Джоэл Шумахер / Joel Schumacher) [1996 г., США,триллер, драма, BDRip-AVC] MVO + DVO + AVO + Original + Subs

Reply to topic
 
Author
Message

Delia ®

Gender:

Longevity: 11 years

Posts: 1821

Торрент-статистика

Post 18-May-2012 19:40

[Quote]

Время убивать / A Time to Kill«From the bestselling author of The Firm and The Client.»--
Год выпуска: 1996
Страна: США
Жанр: триллер, драма, криминал, ...
Продолжительность: 02:29:29
Перевод: Профессиональный (двухголосый закадровый) ТНТ
Субтитры: Russian , English (srt)
Режиссер: Джоэл Шумахер
Сценарий: Акива Голдсман, Джон Гришем
Продюсер: Джон Гришем, Хант Лоури, Арнон Милчэн, ...
Оператор: Питер Мензиес мл.
Композитор: Эллиот Голденталь
Художник: Ларри Фултон, Ричард Тойон, Ингрид Феррин, ...
Монтаж: Уильям Стайнкамп- В ролях: Мэттью МакКонахи (Matthew McConaughey), Сандра Буллок (Sandra Bullock), Сэмюэл Л. Джексон (Samuel L. Jackson), Кевин Спейси (Kevin Spacey), Оливер Плэтт (Oliver Platt), Чарльз С. Даттон (Charles S. Dutton), Бренда Фрикер (Brenda Fricker), Дональд Сазерленд (Donald Sutherland), Кифер Сазерленд (Kiefer Sutherland), Патрик МакГуэн (Patrick McGoohan), Эшли Джадд (Ashley Judd), Тони Стюарт (Tonea Stewart), РаВен Лерримор Келли (Rae'Ven Larrymore Kelly), Дэррин Митчел (Darrin Mitchell), LaConte McGrew, Девин Ллойд (Devin Lloyd), Джон Дил (John Diehl), Крис Купер (Chris Cooper), Никки Кэтт (Nicky Katt), Даг Хатчисон (Doug Hutchison)
Описание: Зверски изнасилована десятилетняя девочка. Отец девочки расстреливает подонков.Ему грозит газовая камера. Сможет ли блестящий адвокат, не проигравший ни одного дела, добиться признания невиновности своего клиента?-Рейтинг MPAA: -- --Качество: BDRip
Формат: MKV
Видео кодек: H.264 (AVC)
Аудио кодеk: AC3
Видео: 1280x544 (2.35:1), 23.976 fps, AVC, 3 993 Kbps
Аудио: AC3, 192 Kbps, 48.0 KHz, 2 ch (DVO ТНТ)
Отдельно на народ.ру
384 Кбит/сек, 48,0 КГц, 16 бит, 6 каналов, AC-3 (MVO R5 Твистер)
384 Кбит/сек, 48,0 КГц, 16 бит, 6 каналов, AC-3 (AVO Живов.)
320 Кбит/сек, 48,0 КГц, 16 бит, 6 каналов, AC-3 (English)

x264:

Код:
x264 [info]: frame I:1975 Avg QP:15.82 size:111876
x264 [info]: frame P:42634 Avg QP:18.12 size: 42002
x264 [info]: frame B:170446 Avg QP:20.43 size: 14448

МедиаИнфо

Код:
General
Complete name                    : A Time to Kill(1996)BDRip 720p-F.HD.mkv
Format                           : Matroska
File size                        : 4.37 GiB
Duration                         : 2h 29mn
Overall bit rate                 : 4 185 Kbps
Encoded date                     : UTC 2012-05-18 14:40:40
Writing application              : mkvmerge v5.4.0 ('Piper') built on Mar 10 2012 13:34:39
Writing library                  : libebml v1.2.3 + libmatroska v1.3.0
Video
ID                               : 1
Format                           : AVC
Format/Info                      : Advanced Video Codec
Format profile                   : [email protected]
Format settings, CABAC           : Yes
Format settings, ReFrames        : 9 frames
Muxing mode                      : Container [email protected]
Codec ID                         : V_MPEG4/ISO/AVC
Duration                         : 2h 29mn
Bit rate                         : 3 993 Kbps
Width                            : 1 280 pixels
Height                           : 544 pixels
Display aspect ratio             : 2.35:1
Frame rate                       : 23.976 fps
Color space                      : YUV
Chroma subsampling               : 4:2:0
Bit depth                        : 8 bits
Scan type                        : Progressive
Bits/(Pixel*Frame)               : 0.239
Stream size                      : 4.08 GiB (93%)
Writing library                  : x264 core 122 r2184 5c85e0a
Encoding settings                : cabac=1 / ref=9 / deblock=1:-3:-3 / analyse=0x3:0x113 / me=umh / subme=10 / psy=1 / psy_rd=0.90:0.15 / mixed_ref=1 / me_range=32 / chroma_me=1 / trellis=2 / 8x8dct=1 / cqm=0 / deadzone=21,11 / fast_pskip=0 / chroma_qp_offset=-3 / threads=6 / sliced_threads=0 / nr=0 / decimate=1 / interlaced=0 / bluray_compat=0 / constrained_intra=0 / bframes=7 / b_pyramid=2 / b_adapt=2 / b_bias=0 / direct=3 / weightb=1 / open_gop=0 / weightp=2 / keyint=240 / keyint_min=23 / scenecut=40 / intra_refresh=0 / rc=2pass / mbtree=0 / bitrate=3993 / ratetol=1.0 / qcomp=0.70 / qpmin=0 / qpmax=69 / qpstep=4 / cplxblur=20.0 / qblur=0.5 / ip_ratio=1.40 / pb_ratio=1.30 / aq=2:0.80
Color primaries                  : BT.709-5, BT.1361, IEC 61966-2-4, SMPTE RP177
Transfer characteristics         : BT.709-5, BT.1361
Matrix coefficients              : BT.709-5, BT.1361, IEC 61966-2-4 709, SMPTE RP177
Audio
ID                               : 2
Format                           : AC-3
Format/Info                      : Audio Coding 3
Mode extension                   : CM (complete main)
Codec ID                         : A_AC3
Duration                         : 2h 29mn
Bit rate mode                    : Constant
Bit rate                         : 192 Kbps
Channel(s)                       : 2 channels
Channel positions                : Front: L R
Sampling rate                    : 48.0 KHz
Bit depth                        : 16 bits
Stream size                      : 205 MiB (5%)
Language                         : Russian
Text #1
ID                               : 3
Format                           : UTF-8
Codec ID                         : S_TEXT/UTF8
Codec ID/Info                    : UTF-8 Plain Text
Language                         : Russian
Text #2
ID                               : 4
Format                           : UTF-8
Codec ID                         : S_TEXT/UTF8
Codec ID/Info                    : UTF-8 Plain Text
Menu
00:00:00.000                     : en:Chapter 01
00:03:35.131                     : en:Chapter 02
00:09:15.554                     : en:Chapter 03
00:15:17.333                     : en:Chapter 04
00:19:47.519                     : en:Chapter 05
00:25:29.861                     : en:Chapter 06
00:27:13.923                     : en:Chapter 07
00:29:12.584                     : en:Chapter 08
00:31:45.987                     : en:Chapter 09
00:36:45.161                     : en:Chapter 10
00:37:39.547                     : en:Chapter 11
00:40:30.469                     : en:Chapter 12
00:42:48.524                     : en:Chapter 13
00:45:32.521                     : en:Chapter 14
00:48:48.382                     : en:Chapter 15
00:50:47.002                     : en:Chapter 16
00:52:55.630                     : en:Chapter 17
01:00:28.082                     : en:Chapter 18
01:01:03.076                     : en:Chapter 19
01:03:51.744                     : en:Chapter 20
01:05:55.117                     : en:Chapter 21
01:07:13.112                     : en:Chapter 22
01:11:23.237                     : en:Chapter 23
01:15:55.759                     : en:Chapter 24
01:18:18.860                     : en:Chapter 25
01:23:24.374                     : en:Chapter 26
01:25:46.140                     : en:Chapter 27
01:27:39.420                     : en:Chapter 28
01:31:15.553                     : en:Chapter 29
01:35:33.728                     : en:Chapter 30
01:37:12.576                     : en:Chapter 31
01:38:43.667                     : en:Chapter 32
01:39:51.568                     : en:Chapter 33
01:44:13.789                     : en:Chapter 34
01:49:01.368                     : en:Chapter 35
01:54:42.458                     : en:Chapter 36
01:58:42.573                     : en:Chapter 37
02:00:17.251                     : en:Chapter 38
02:02:38.267                     : en:Chapter 39
02:06:20.406                     : en:Chapter 40
02:08:31.453                     : en:Chapter 41
02:11:45.230                     : en:Chapter 42
02:13:19.157                     : en:Chapter 43
02:21:05.331                     : en:Chapter 44
02:23:01.447                     : en:Chapter 45
02:25:16.499                     : en:Chapter 46
02:29:29.584                     : en:Chapter 47

Знаете ли Вы, что...

» На роль Джейка Бригенса планировались Вэл Килмер, Джон Кьюсак, Роберт Дауни-младший, Эйдан Куин и Брэд Питт. Рассматривались также кандидатуры Вуди Харрельсона и Кевина Костнера. Последний был очень близок к утверждению, но против этого выступил Джон Гришэм — сопродюсер и автор книги, на которой основан сюжет фильма — опасавшийся, что Костнер «подомнёт под себя» всю съёмочную группу и будет влиять на сюжет фильма. Для Гришэма же это было неприемлемо. «Время убивать» был первым его опубликованным романом и автор неоднократно признавался, что считает этот роман лучшим из всех своих произведений. Именно стремление сделать его экранизацию максимально близкой к роману и вынудило Гришэма стать сопродюсером этого фильма. И именно это обстоятельство поставило крест на попытке Кевина Костнера сыграть в этом фильме главную роль. Опасения Гришэма оказались столь сильны, что на главную роль был утверждён Мэттью Макконэхи, к этому моменту уже утверждённый на роль ку-клукс-клановца Фредди Ли Кобба, брата одного из убитых Карлом Ли Хейли (это роль в результате сыграл Кифер Сазерленд).


Скриншоты

       
       

_________________
Человек – это канат, натянутый между животным и сверхчеловеком, – канат над пропастью.
В человеке ценно то, что он мост, а не цель. Фридрих Ницше
Other forum [Profile] [PM]
Display posts from previous:    
Reply to topic

The time now is: Today 11:48

All times are GMT + 3 Hours



You cannot post new topics in this forum
You cannot reply to topics in this forum
You cannot edit your posts in this forum
You cannot delete your posts in this forum
You cannot vote in polls in this forum
You cannot attach files in this forum
You cannot download files in this forum