Today is a free download without charge Download

Геймеры / Серии 1-8 из 8 (Михaил Шeвчук) [2012, Россия, боевик, приключения, 2хDVD9] R5 «Новый Диск»

Reply to topic
 
Author
Message

Koralina ®

Longevity: 10 years

Posts: 994

Location: Lithuania

Торрент-статистика

Post 18-May-2012 14:22

[Quote]

Геймеры«Игры кончились. Но остались те, кто помнит, как в них играть.» Страна: Россия
Студия: КАРО-Продакшн
Жанр: боевик, приключения
Год выпуска: 2012
Российская премьера: 12 марта 2012
Дата выхода DVD: 7 мая 2012, «Новый Диск», 14 мая «Новый Диск»
Продолжительность: 200 мин.
Перевод: Оригинал [Лицензия]
Cубтитры: нет
Оригинальная аудиодорожка: русский
Режиссер: Михаил Шевчук
В ролях: Сергей Чирков, Павел Прилучный, Агата Муцениеце, Нодар Сирадзе, Евгений Харланов, Борис Тенин, Юрий Кригер, Сергей Сериков, Анна Васильева, Светлана Изотова, Илья Сысоев, Иван Соловьев, Евгения Лапова, Роман Савченко, Юрий Сысоев, Анатолий Филиппов, Игорь Мещерин, Джульетта Казакевич
Описание: Восьмисерийный сериал продолжает и развивает историю кинодилогии Павла Санаева «На игре». Кто-то из прежних героев погиб, кто-то попал в тюрьму — а значит таинственным высокопоставленным силам нужны новые идеальные солдаты для выполнения их античеловеческих планов.
За дело готов взяться только Док. Он жив, он жаждет мести и готов на всё. Ничего не изменилось. Люди для Дока — грязь, а человеческая жизнь — ничто. Док набирает новичков, способных заменить прежний отряд, и единственный способ остановить его — собрать остатки старой команды. Эта задача выглядит неразрешимой: Вампир и Рита в тюрьме, а Ян и Комар в бегах. У каждого персонажа свои задачи, у каждого поступка — своя предыстория. Здесь будет всё: фантастические перипетии и неожиданно светлые намерения, жестокие столкновения и безудержные страхи. Сменяя друг друга, закрутятся в штопор реальные и фантазийные ситуации. Конфликты обостряются до предела, а герои не остановятся ни перед чем. Одни — во имя смерти и победы любой ценой, другие — во имя жизни и всё еще возможного счастья.

Качество: 2xDVD9 R5
Формат: DVD-Video
Видео кодек: MPEG2
Аудио кодек: AC3
Видео: PAL 4:3 (720x576(0.531)) MPEG Video, 25,000 кадр/сек, 5503 Кбит/сек
Аудио: Russian (Dolby AC3, 2 ch) 192 Кбит/сек, 48,0 КГц

DVDInfo DVD-1

Title:
Size: 7.71 Gb ( 8 082 176 KBytes ) - DVD-9
Enabled regions: 1, 2, 3, 4, 5, 6, 7, 8
VTS_01 :
Play Length: 00:00:15
Video: PAL 4:3 (720x576) VBR
Audio:
Not specified (Dolby AC3, 2 ch)
VTS_02 :
Play Length: 00:00:08
Video: PAL 4:3 (720x576) VBR
Audio:
Not specified (Dolby AC3, 2 ch)
VTS_03 :
Play Length: 00:48:00
Video: PAL 4:3 (720x576) VBR
Audio:
Not specified (Dolby AC3, 2 ch)
VTS_04 :
Play Length: 00:48:00
Video: PAL 4:3 (720x576) VBR
Audio:
Not specified (Dolby AC3, 2 ch)
VTS_05 :
Play Length: 00:48:01
Video: PAL 4:3 (720x576) VBR
Audio:
Not specified (Dolby AC3, 2 ch)
VTS_06 :
Play Length: 00:48:01
Video: PAL 4:3 (720x576) VBR
Audio:
Not specified (Dolby AC3, 2 ch)
Menu Video:
PAL 4:3 (720x576) VBR
Menu English Language Unit :
Root Menu
Chapter (PTT) Menu

DVDInfo DVD-2

Title:
Size: 7.78 Gb ( 8 155 572 KBytes ) - DVD-9
Enabled regions: 1, 2, 3, 4, 5, 6, 7, 8
VTS_01 :
Play Length: 00:00:15
Video: PAL 4:3 (720x576) VBR
Audio:
Not specified (Dolby AC3, 2 ch)
VTS_02 :
Play Length: 00:00:08
Video: PAL 4:3 (720x576) VBR
Audio:
Not specified (Dolby AC3, 2 ch)
VTS_03 :
Play Length: 00:48:03
Video: PAL 4:3 (720x576) VBR
Audio:
Not specified (Dolby AC3, 2 ch)
VTS_04 :
Play Length: 00:48:01
Video: PAL 4:3 (720x576) VBR
Audio:
Not specified (Dolby AC3, 2 ch)
VTS_05 :
Play Length: 00:48:01
Video: PAL 4:3 (720x576) VBR
Audio:
Not specified (Dolby AC3, 2 ch)
VTS_06 :
Play Length: 00:49:00
Video: PAL 4:3 (720x576) VBR
Audio:
Not specified (Dolby AC3, 2 ch)

MediaInfo

Общее
Полное имя : J:\Новинки 2012\Gejmery.1-4.serii.2012.DVD9\VIDEO_TS\VTS_03_1.VOB
Формат : MPEG-PS
Размер файла : 1024 Мбайт
Продолжительность : 24 м.
Режим общего битрейта : Переменный
Общий поток : 5810 Кбит/сек
Видео
Идентификатор : 224 (0xE0)
Формат : MPEG Video
Версия формата : Version 2
Профиль формата : [email protected]
Параметр BVOP формата : Да
Параметр матрицы формата : По умолчанию
Параметр GOP формата : M=3, N=12
Продолжительность : 24 м.
Вид битрейта : Переменный
Битрейт : 5503 Кбит/сек
Максимальный битрейт : 7500 Кбит/сек
Ширина : 720 пикселей
Высота : 576 пикселей
Соотношение сторон : 4:3
Частота кадров : 25,000 кадров/сек
Стандарт вещания : PAL
Цветовое пространство : YUV
Субдискретизация насыщенности : 4:2:0
Битовая глубина : 8 бит
Тип развёртки : Прогрессивная
Метод сжатия : С потерями
Бит/(Пиксели*Кадры) : 0.531
Размер потока : 970 Мбайт (95%)
Аудио
Идентификатор : 189 (0xBD)-128 (0x80)
Формат : AC-3
Формат/Информация : Audio Coding 3
Расширение режима : CM (complete main)
Параметр Endianness формата : Big
Режим смешивания : DVD-Video
Продолжительность : 24 м.
Вид битрейта : Постоянный
Битрейт : 192 Кбит/сек
Каналы : 2 канала
Расположение каналов : Front: L R
Частота : 48,0 КГц
Битовая глубина : 16 бит
Метод сжатия : С потерями
Размер потока : 33,8 Мбайт (3%)

Скриншоты меню

   

Скриншоты сериала

                   

_________________
Other forum [Profile] [PM]
Display posts from previous:    
Reply to topic

The time now is: Today 15:00

All times are GMT + 3 Hours



You cannot post new topics in this forum
You cannot reply to topics in this forum
You cannot edit your posts in this forum
You cannot delete your posts in this forum
You cannot vote in polls in this forum
You cannot attach files in this forum
You cannot download files in this forum