Today is a free download without charge Download

Шаолинь / Xin shao lin si (Бенни Чан / Benny Chan) [2011, Гонконг, Китай, боевик, драма, DVD9] R5 MVO Sub Rus

Reply to topic
 
Author
Message

Koralina ®

Longevity: 9 years 7 months

Posts: 994

Location: Lithuania

Торрент-статистика

Post 18-May-2012 14:13

[Quote]

Шаолинь / Xin shao lin si
«Великая битва в стенах легенды»
Страна: Гонконг, Китай
Студия: Beijing Silver Moon Productions, China Film Group Corporation, Emperor Motion Pictures, Huayi Brothers Media, Shaolin Temple Culture Communication
Жанр: боевик, драма
Год выпуска: 2011
Мировая премьера: 20 января 2011
Дата выхода DVD: 24 апреля 2012, «Lizard Cinema Trade»
Продолжительность: 02:05:49
Перевод: Профессиональный (многоголосый закадровый) [Лицензия]
Cубтитры: русские
Оригинальная аудиодорожка: китайский
Режиссер: Бенни Чан / Benny Chan
В ролях: Энди Лау, Николас Тсе, Фань Бинбин, Джеки Чан, Джеки Ву, Ю Хин, Ксин Ксин Ксион
Описание: Шаолинь… Вряд ли найдется человек, который не слышал этого легендарного имени и не восхищался безупречной техникой его мастеров боевых искусств. Древняя обитель зачастую оказывалась в гуще сражений, меняя ход истории великой империи.
Вражда между китайскими военачальниками достигла своего предела. В безудержном стремлении завоевать соседние территории они погружают страну в пучину раздора. Молодой воин Сяо Че, одержав победу в поединке над одним из шаолиньских мастеров, начинает этим бахвалиться. Но самонадеянность к добру не ведет. В междоусобных распрях гибнет семья Сяо. Ему самому удается чудом спастись. Сяо укрывают шаолиньские монахи. Известия о бесчинствах местного «царька» достигают стен монастыря. Сяо Че и его новые друзья решают вмешаться и защитить простых людей от произвола жестокого завоевателя. Осуществится ли их дерзкий план? Или в финале битвы им придется спасаться бегством?
Бонусы: нет

Качество: DVD9 R5
Формат: DVD-Video
Видео кодек: MPEG2
Аудио кодек: AC3
Видео: PAL 16:9 (720x576(0.515)) MPEG Video, 25,000 кадр/сек, 5339 Кбит/сек
Аудио #1: Russian (Dolby AC3, 6 ch) 448 Кбит/сек, 48,0 КГц
Аудио #2: Russian (Dolby AC3, 2 ch) 192 Кбит/сек, 48,0 КГц
Аудио #3: Chinese (Dolby AC3, 2 ch) 192 Кбит/сек, 48,0 КГц

DVDInfo

Title:
Size: 5.88 Gb ( 6 166 990 KBytes ) - DVD-9
Enabled regions: 1, 2, 3, 4, 5, 6, 7, 8
VTS_01 :
Play Length: 00:00:25
Video: PAL 4:3 (720x576) VBR
Audio:
Russian (Dolby AC3, 6 ch)
VTS_02 :
Play Length: 02:05:49
Video: PAL 16:9 (720x576) VBR, Auto Pan&Scan, Auto Letterboxed
Audio:
Russian (Dolby AC3, 6 ch)
Russian (Dolby AC3, 2 ch)
English (Dolby AC3, 2 ch)
Subtitles:
Russian
Menu Video:
PAL 4:3 (720x576) VBR
Menu English Language Unit :
Root Menu
Chapter (PTT) Menu
Subpicture Menu
Audio Menu

MediaInfo

Общее
Полное имя : J:\Новинки 2012\Shaolin.2011.DVD9\VIDEO_TS\VTS_02_1.VOB
Формат : MPEG-PS
Размер файла : 1024 Мбайт
Продолжительность : 22 м.
Режим общего битрейта : Переменный
Общий поток : 6296 Кбит/сек
Видео
Идентификатор : 224 (0xE0)
Формат : MPEG Video
Версия формата : Version 2
Профиль формата : [email protected]
Параметр BVOP формата : Да
Параметр матрицы формата : Выборочная
Продолжительность : 22 м.
Вид битрейта : Переменный
Битрейт : 5339 Кбит/сек
Максимальный битрейт : 8000 Кбит/сек
Ширина : 720 пикселей
Высота : 576 пикселей
Соотношение сторон : 16:9
Частота кадров : 25,000 кадров/сек
Стандарт вещания : PAL
Цветовое пространство : YUV
Субдискретизация насыщенности : 4:2:0
Битовая глубина : 8 бит
Тип развёртки : Прогрессивная
Метод сжатия : С потерями
Бит/(Пиксели*Кадры) : 0.515
Размер потока : 868 Мбайт (85%)
Аудио #1
Идентификатор : 189 (0xBD)-128 (0x80)
Формат : AC-3
Формат/Информация : Audio Coding 3
Расширение режима : CM (complete main)
Параметр Endianness формата : Big
Режим смешивания : DVD-Video
Продолжительность : 22 м.
Вид битрейта : Постоянный
Битрейт : 448 Кбит/сек
Каналы : 6 каналов
Расположение каналов : Front: L C R, Side: L R, LFE
Частота : 48,0 КГц
Битовая глубина : 16 бит
Метод сжатия : С потерями
Размер потока : 72,8 Мбайт (7%)
Аудио #2
Идентификатор : 189 (0xBD)-129 (0x81)
Формат : AC-3
Формат/Информация : Audio Coding 3
Расширение режима : CM (complete main)
Параметр Endianness формата : Big
Режим смешивания : DVD-Video
Продолжительность : 22 м.
Вид битрейта : Постоянный
Битрейт : 192 Кбит/сек
Каналы : 2 канала
Расположение каналов : Front: L R
Частота : 48,0 КГц
Битовая глубина : 16 бит
Метод сжатия : С потерями
Размер потока : 31,2 Мбайт (3%)
Аудио #3
Идентификатор : 189 (0xBD)-130 (0x82)
Формат : AC-3
Формат/Информация : Audio Coding 3
Расширение режима : CM (complete main)
Параметр Endianness формата : Big
Режим смешивания : DVD-Video
Продолжительность : 22 м.
Вид битрейта : Постоянный
Битрейт : 192 Кбит/сек
Каналы : 2 канала
Расположение каналов : Front: L R
Частота : 48,0 КГц
Битовая глубина : 16 бит
Метод сжатия : С потерями
Размер потока : 31,2 Мбайт (3%)
Текст
Идентификатор : 189 (0xBD)-32 (0x20)
Формат : RLE
Формат/Информация : Run-length encoding
Режим смешивания : DVD-Video

Скриншоты меню

     

Скриншоты фильма

                   

_________________
Other forum [Profile] [PM]
Display posts from previous:    
Reply to topic

The time now is: Today 01:10

All times are GMT + 3 Hours



You cannot post new topics in this forum
You cannot reply to topics in this forum
You cannot edit your posts in this forum
You cannot delete your posts in this forum
You cannot vote in polls in this forum
You cannot attach files in this forum
You cannot download files in this forum