Today is a free download without charge Download

Значит, война / This Means War [ МакДжи (2012) боевик, мелодрама, комедия , BDRip 720p ] лицензия | Театральная версия / Theatrical Cut

Reply to topic
 
Author
Message

Delia ®

Gender:

Longevity: 11 years

Posts: 1821

Торрент-статистика

Post 16-May-2012 20:31

[Quote]

Значит, война / This Means War«2 шпиона - 1 проблема»--
Год выпуска: 2012
Страна: США
Жанр: боевик, мелодрама, комедия, ...
Продолжительность: 01:37:32
Перевод: Профессиональный (дублированный)
Субтитры: Russian, English ( srt)
Режиссер: МакДжи
Сценарий: Тимоти Даулинг, Саймон Кинберг, Маркус Готесен
Продюсер: Саймон Кинберг, Джеймс Ласситер, Роберт Симондз, ...
Оператор: Рассел Карпентер
Композитор: Кристоф Бек
Художник: Мартин Лэйн, Кенделл Эллиотт, Эрик Фрайзер, ...
Монтаж: Николас Де То, Джессе Драйбуш- В ролях: Том Харди (Tom Hardy), Крис Пайн (Chris Pine), Риз Уизерспун (Reese Witherspoon), Тиль Швайгер (Til Schweiger), Челси Хэндлер (Chelsea Handler), Джон Пол Руттан (John Paul Ruttan), Эбигейл Спенсер (Abigail Spencer), Анджела Бассетт (Angela Bassett), Розмари Харрис (Rosemary Harris), Джордж Тулиатос (George Touliatos), Клинт Карлтон (Clint Carleton), Уоррен Кристи (Warren Christie), Лила Саваста (Leela Savasta), Наташа Мальте (Natassia Malthe), Лора Вандервурт (Laura Vandervoort), Доминик Браун (Dominique Brownes), Пол Ву (Paul Wu), Дарен А. Херберт (Daren A. Herbert), Кевин О’Грэйди (Kevin O'Grady), Джесси Рейд (Jesse Reid)
Описание: Два секретных агента, которые к тому же и закадычные друзья, влюбляются в одну и ту же женщину, но ни один не желает уступить другому.-Рейтинг MPAA: -- --Качество: BDRip
Формат: MKV
Видео кодек: H.264 (AVC)
Аудио кодеk: AC3
Видео: 1280x534 (2.35:1), 23.976 fps, AVC, 5 648 Kbps
Аудио: RUS, AC3, 384 Kbps, 48.0 KHz, 6 ch
Аудио #2:ENG, AC3, 384 Kbps, 48.0 KHz, 6 ch

МедиаИнфо

Код:
Общее
Уникальный идентификатор         : 217652916566490938062266918134288962047 (0xA3BE6D4C960EFFCCA7D800D95CDF51FF)
Полное имя                       : E:\торрент\This Means War (2012) BDRip .mkv
Формат                           : Matroska
Размер файла                     : 4,37 Гбайт
Продолжительность                : 1 ч. 37 м.
Общий поток                      : 6409 Кбит/сек
Дата кодирования                 : UTC 2012-06-23 13:37:51
Программа кодирования            : mkvmerge v5.4.0 ('Piper') built on Mar 10 2012 13:34:39
Библиотека кодирования           : libebml v1.2.3 + libmatroska v1.3.0
Видео
Идентификатор                    : 1
Формат                           : AVC
Формат/Информация                : Advanced Video Codec
Профиль формата                  : [email protected]
Параметр CABAC формата           : Да
Параметр ReFrames формата        : 8 кадров
Идентификатор кодека             : V_MPEG4/ISO/AVC
Продолжительность                : 1 ч. 37 м.
Битрейт                          : 5648 Кбит/сек
Ширина                           : 1280 пикс.
Высота                           : 534 пикс.
Соотношение сторон               : 2,35:1
Частота кадров                   : 23,976 кадр/сек
Цветовое пространство            : YUV
Подвыборка цветности             : 4:2:0
Битовая глубина                  : 8 бит
Тип развёртки                    : Прогрессивная
Бит/(Пиксели*Кадры)              : 0.345
Размер потока                    : 3,76 Гбайт (86%)
Библиотека кодирования           : x264 core 122 r2184 5c85e0a
Настройки программы              : cabac=1 / ref=8 / deblock=1:-3:-3 / analyse=0x3:0x113 / me=umh / subme=10 / psy=1 / psy_rd=0.90:0.15 / mixed_ref=1 / me_range=48 / chroma_me=1 / trellis=2 / 8x8dct=1 / cqm=0 / deadzone=21,11 / fast_pskip=0 / chroma_qp_offset=-3 / threads=6 / sliced_threads=0 / nr=0 / decimate=1 / interlaced=0 / bluray_compat=0 / constrained_intra=0 / bframes=8 / b_pyramid=2 / b_adapt=2 / b_bias=0 / direct=3 / weightb=1 / open_gop=0 / weightp=2 / keyint=240 / keyint_min=23 / scenecut=40 / intra_refresh=0 / rc=2pass / mbtree=0 / bitrate=5648 / ratetol=1.0 / qcomp=0.70 / qpmin=0 / qpmax=69 / qpstep=4 / cplxblur=20.0 / qblur=0.5 / ip_ratio=1.40 / pb_ratio=1.30 / aq=2:0.90
Язык                             : English
Основные цвета                   : BT.709-5, BT.1361, IEC 61966-2-4, SMPTE RP177
Характеристики трансфера         : BT.709-5, BT.1361
Коэффициенты матрицы             : BT.709-5, BT.1361, IEC 61966-2-4 709, SMPTE RP177
Аудио #1
Идентификатор                    : 2
Формат                           : AC-3
Формат/Информация                : Audio Coding 3
Расширение режима                : CM (complete main)
Идентификатор кодека             : A_AC3
Продолжительность                : 1 ч. 37 м.
Вид битрейта                     : Постоянный
Битрейт                          : 384 Кбит/сек
Каналы                           : 6 каналов
Расположение каналов             : Front: L C R, Side: L R, LFE
Частота                          : 48,0 КГц
Битовая глубина                  : 16 бит
Метод сжатия                     : С потерями
Размер потока                    : 268 Мбайт (6%)
Язык                             : Russian
Аудио #2
Идентификатор                    : 3
Формат                           : AC-3
Формат/Информация                : Audio Coding 3
Расширение режима                : CM (complete main)
Идентификатор кодека             : A_AC3
Продолжительность                : 1 ч. 37 м.
Вид битрейта                     : Постоянный
Битрейт                          : 384 Кбит/сек
Каналы                           : 6 каналов
Расположение каналов             : Front: L C R, Side: L R, LFE
Частота                          : 48,0 КГц
Битовая глубина                  : 16 бит
Метод сжатия                     : С потерями
Размер потока                    : 268 Мбайт (6%)
Язык                             : English
Текст #1
Идентификатор                    : 4
Формат                           : UTF-8
Идентификатор кодека             : S_TEXT/UTF8
Идентификатор кодека/Информация  : UTF-8 Plain Text
Язык                             : Russian
Текст #2
Идентификатор                    : 5
Формат                           : UTF-8
Идентификатор кодека             : S_TEXT/UTF8
Идентификатор кодека/Информация  : UTF-8 Plain Text
Язык                             : English
Меню
00:00:00.000                     : en:Chapter 01
00:05:01.467                     : en:Chapter 03
00:10:09.984                     : en:Chapter 05
00:14:18.190                     : en:Chapter 07
00:17:32.468                     : en:Chapter 09
00:21:46.638                     : en:Chapter 11
00:23:47.092                     : en:Chapter 13
00:27:14.758                     : en:Chapter 15
00:30:59.440                     : en:Chapter 17
00:36:35.192                     : en:Chapter 19
00:41:06.505                     : en:Chapter 21
00:44:51.980                     : en:Chapter 23
00:47:44.403                     : en:Chapter 25
00:51:11.860                     : en:Chapter 27
00:55:58.605                     : en:Chapter 29
01:01:20.510                     : en:Chapter 31
01:06:39.286                     : en:Chapter 33
01:09:14.066                     : en:Chapter 35
01:12:30.721                     : en:Chapter 37
01:15:55.842                     : en:Chapter 39
01:21:06.569                     : en:Chapter 41
01:25:55.650                     : en:Chapter 43
01:29:51.219                     : en:Chapter 45
01:31:33.529                     : en:Chapter 47
01:37:32.596                     : en:Chapter 48

Знаете ли Вы, что...

» Сэм Уортингтон, Колин Фаррелл, Джастин Тимберлейк и Сет Роген рассматривались главные роли, но в итоге они достались Крису Пайну и Тому Харди.


Скриншоты

     
     

_________________
Человек – это канат, натянутый между животным и сверхчеловеком, – канат над пропастью.
В человеке ценно то, что он мост, а не цель. Фридрих Ницше


Last edited by Delia on 2012-06-23 20:14; edited 2 times in total
Other forum [Profile] [PM]

Delia ®

Gender:

Longevity: 11 years

Posts: 1821

Торрент-статистика

Post 23-Jun-2012 17:18 (after 1 month 6 days)

[Quote]

Замена дорожки на лицензионную.

_________________
Человек – это канат, натянутый между животным и сверхчеловеком, – канат над пропастью.
В человеке ценно то, что он мост, а не цель. Фридрих Ницше
Other forum [Profile] [PM]
Display posts from previous:    
Reply to topic

The time now is: Today 19:54

All times are GMT + 3 Hours



You cannot post new topics in this forum
You cannot reply to topics in this forum
You cannot edit your posts in this forum
You cannot delete your posts in this forum
You cannot vote in polls in this forum
You cannot attach files in this forum
You cannot download files in this forum