Today is a free download without charge Download

Значит, война / This Means War (МакДжи / McG) [2012 г., боевик, мелодрама, комедия, BDRip 1080p] [лицензия]

Reply to topic
 
Author
Message

BoxeR ®

Gender:

Longevity: 9 years

Posts: 423

Торрент-статистика

Post 16-May-2012 11:01

[Quote]

Значит, война / This Means War--
  • Год выхода: 2012
  • Страна: США / Overbrook Entertainment, Robert Simonds Productions
  • Жанр: боевик, мелодрама, комедия
  • Продолжительность: 01:37:34
  • Перевод: Дублированное [лицензия]
  • Cубтитры: English-
  • Режиссёр:
    МакДжи / McG-
  • В ролях:
    Том Харди, Крис Пайн, Риз Уизерспун, Тиль Швайгер, Челси Хэндлер, Джон Пол Руттан, Эбигейл Спенсер, Анджела Бассетт, Розмари Харрис, Джордж Тулиатос-
  • Описание:
    Два секретных агента, которые к тому же и закадычные друзья, влюбляются в одну и ту же женщину, но ни один не желает уступить другому.-СЕМПЛ: http://sendfile.su/593914
  • Качество: BDRip 1080p
  • Формат: MKV
  • Видео кодек: H.264
  • Аудио кодек: AC3 / DTS
  • Видео: AVC, 1920x800, 23.976 fps, 13.9 mbps
  • Аудио 1: AC3, 448 Kb/s, 6 ch (Russian)
  • Аудио 2: DTS, 1510 Kb/s, 6 ch (English)-

    MediaInfo

    Общее
    Уникальный идентификатор : 215826517282970134000649131149491653199 (0xA25EACDCB671D982985BB12CBBD74A4F)
    Формат : Matroska
    Версия формата : Version 2
    Размер файла : 5,69 Гбайт
    Продолжительность : 1 ч. 37 м.
    Общий поток : 8343 Кбит/сек
    Название фильма : Znachit.voina.2012.D.BDRip.720p.ELEKTRI4KA - by sstonecold and FSB -
    Дата кодирования : UTC 2012-05-15 13:07:53
    Программа кодирования : mkvmerge v5.2.0 ('I can't explain') built on Dec 18 2011 18:12:03
    Библиотека кодирования : libebml v1.2.3 + libmatroska v1.3.0
    Видео
    Идентификатор : 1
    Формат : AVC
    Формат/Информация : Advanced Video Codec
    Профиль формата : [email protected]
    Параметр CABAC формата : Да
    Параметр ReFrames формата : 12 кадров
    Идентификатор кодека : V_MPEG4/ISO/AVC
    Продолжительность : 1 ч. 37 м.
    Битрейт : 6390 Кбит/сек
    Ширина : 1280 пикс.
    Высота : 536 пикс.
    Соотношение сторон : 2,40:1
    Частота кадров : 23,976 кадр/сек
    Цветовое пространство : YUV
    Подвыборка цветности : 4:2:0
    Битовая глубина : 8 бит
    Тип развёртки : Прогрессивная
    Бит/(Пиксели*Кадры) : 0.388
    Размер потока : 4,24 Гбайт (75%)
    Заголовок : Znachit.voina.2012.D.BDRip.720p.ELEKTRI4KA - by sstonecold and FSB -
    Библиотека кодирования : x264 core 120 r2164+656 2ff844c
    Настройки программы : cabac=1 / ref=12 / deblock=1:-3:-3 / analyse=0x3:0x113 / me=umh / subme=11 / psy=1 / fade_compensate=0.00 / psy_rd=1.03:0.00 / mixed_ref=1 / me_range=32 / chroma_me=1 / trellis=2 / 8x8dct=1 / cqm=0 / deadzone=21,11 / fast_pskip=1 / chroma_qp_offset=-2 / threads=6 / sliced_threads=0 / nr=0 / decimate=1 / interlaced=0 / bluray_compat=0 / constrained_intra=0 / fgo=0 / bframes=7 / b_pyramid=2 / b_adapt=2 / b_bias=0 / direct=3 / weightb=1 / open_gop=0 / weightp=2 / keyint=250 / keyint_min=23 / scenecut=40 / intra_refresh=0 / rc_lookahead=40 / rc=2pass / mbtree=0 / bitrate=6390 / ratetol=1.0 / qcomp=0.60 / qpmin=0 / qpmax=69 / qpstep=4 / cplxblur=20.0 / qblur=0.5 / vbv_maxrate=40000 / vbv_bufsize=40000 / nal_hrd=none / ip_ratio=1.40 / pb_ratio=1.30 / aq=1:1.00
    Язык : English
    Аудио #1
    Идентификатор : 2
    Формат : AC-3
    Формат/Информация : Audio Coding 3
    Расширение режима : CM (complete main)
    Идентификатор кодека : A_AC3
    Продолжительность : 1 ч. 37 м.
    Вид битрейта : Постоянный
    Битрейт : 448 Кбит/сек
    Каналы : 6 каналов
    Расположение каналов : Front: L C R, Side: L R, LFE
    Частота : 48,0 КГц
    Битовая глубина : 16 бит
    Метод сжатия : С потерями
    Размер потока : 313 Мбайт (5%)
    Язык : Russian
    Аудио #2
    Идентификатор : 3
    Формат : DTS
    Формат/Информация : Digital Theater Systems
    Идентификатор кодека : A_DTS
    Продолжительность : 1 ч. 37 м.
    Вид битрейта : Постоянный
    Битрейт : 1510 Кбит/сек
    Каналы : 6 каналов
    Расположение каналов : Front: L C R, Side: L R, LFE
    Частота : 48,0 КГц
    Битовая глубина : 24 бит
    Метод сжатия : С потерями
    Размер потока : 1,03 Гбайт (18%)
    Язык : English
    Текст
    Идентификатор : 4
    Формат : UTF-8
    Идентификатор кодека : S_TEXT/UTF8
    Идентификатор кодека/Информация : UTF-8 Plain Text
    Язык : English

    Скриншоты

         


Last edited by BoxeR on 2012-05-16 13:21; edited 3 times in total
Other forum [Profile] [PM]
Display posts from previous:    
Reply to topic

The time now is: Today 06:20

All times are GMT + 3 Hours



You cannot post new topics in this forum
You cannot reply to topics in this forum
You cannot edit your posts in this forum
You cannot delete your posts in this forum
You cannot vote in polls in this forum
You cannot attach files in this forum
You cannot download files in this forum