Today is a free download without charge Download

Хроника / Chronicle (Джошуа Транк / Joshua Trank) [2012 г., ужасы, фантастика, боевик, триллер, драма, BDRip 1080p] [лицензия]

Reply to topic
 
Author
Message

BoxeR ®

Gender:

Longevity: 9 years

Posts: 423

Торрент-статистика

Post 16-May-2012 10:59

[Quote]

Хроника / Chronicle--
  • Год выхода: 2012
  • Страна: США, Великобритания / Adam Schroeder Productions, Davis Entertainment
  • Жанр: ужасы, фантастика, боевик, триллер, драма
  • Продолжительность: 01:23:53
  • Перевод: Профессиональный (многоголосый) [лицензия]
  • Cубтитры: English-
  • Режиссёр:
    Джошуа Транк / Joshua Trank-
  • В ролях:
    Дэйн ДеХаан, Алекс Расселл, Майкл Б. Джордан, Майкл Келли, Эшли Хиншоу, Бо Петерсен, Анна Вуд, Руди Малкольм, Люк Тайлер, Кристал-Донна Робертс-
  • Описание:
    Три школьных друга получают супер способности, после обнаружения упавшего метеорита. Скоро они попадут в водоворот событий, в котором откроются их темные стороны.-
  • Качество: BDRip 1080p
  • Формат: MKV
  • Видео кодек: H.264
  • Аудио кодек: AC3 / DTS
  • Видео: AVC, 1920x1032, 23.976 fps, 13.9 mbps
  • Аудио 1: AC3, 448 Kb/s, 6 ch (Russian)
  • Аудио 2: DTS, 1510 Kb/s, 6 ch (English)-

    MediaInfo

    General
    Unique ID : 211879001279161148443495935882459757804 (0x9F66694BF14440C7BA51CD9970EE3CEC)
    Complete name : D:\Hronika.2012.D.BDRip.1080p.ELEKTRI4KA.mkv
    Format : Matroska
    File size : 9.28 GiB
    Duration : 1h 23mn
    Overall bit rate : 15.8 Mbps
    Movie name : Hronika.2012.D.BDRip.1080p.ELEKTRI4KA - by sstonecold and FSB -
    Encoded date : UTC 2012-05-15 12:50:27
    Writing application : mkvmerge v5.2.0 ('I can't explain') built on Dec 18 2011 18:12:03
    Writing library : libebml v1.2.3 + libmatroska v1.3.0
    Video
    ID : 1
    Format : AVC
    Format/Info : Advanced Video Codec
    Format profile : [email protected]
    Format settings, CABAC : Yes
    Format settings, ReFrames : 4 frames
    Codec ID : V_MPEG4/ISO/AVC
    Duration : 1h 23mn
    Bit rate : 13.9 Mbps
    Width : 1 920 pixels
    Height : 1 032 pixels
    Display aspect ratio : 1.860
    Frame rate : 23.976 fps
    Color space : YUV
    Chroma subsampling : 4:2:0
    Bit depth : 8 bits
    Scan type : Progressive
    Bits/(Pixel*Frame) : 0.292
    Stream size : 7.95 GiB (86%)
    Title : Hronika.2012.D.BDRip.1080p.ELEKTRI4KA - by sstonecold and FSB -
    Writing library : x264 core 120 r2164+656 2ff844c
    Encoding settings : cabac=1 / ref=3 / deblock=1:-3:-3 / analyse=0x3:0x113 / me=umh / subme=11 / psy=1 / fade_compensate=0.00 / psy_rd=1.00:0.00 / mixed_ref=1 / me_range=32 / chroma_me=1 / trellis=2 / 8x8dct=1 / cqm=0 / deadzone=21,11 / fast_pskip=1 / chroma_qp_offset=-2 / threads=6 / sliced_threads=0 / nr=0 / decimate=1 / interlaced=0 / bluray_compat=0 / constrained_intra=0 / fgo=0 / bframes=7 / b_pyramid=2 / b_adapt=2 / b_bias=0 / direct=3 / weightb=1 / open_gop=0 / weightp=2 / keyint=250 / keyint_min=23 / scenecut=40 / intra_refresh=0 / rc=2pass / mbtree=0 / bitrate=13890 / ratetol=1.0 / qcomp=0.60 / qpmin=0 / qpmax=69 / qpstep=4 / cplxblur=20.0 / qblur=0.5 / ip_ratio=1.40 / pb_ratio=1.30 / aq=1:1.00
    Language : English
    Audio #1
    ID : 2
    Format : AC-3
    Format/Info : Audio Coding 3
    Mode extension : CM (complete main)
    Codec ID : A_AC3
    Duration : 1h 23mn
    Bit rate mode : Constant
    Bit rate : 448 Kbps
    Channel(s) : 6 channels
    Channel positions : Front: L C R, Side: L R, LFE
    Sampling rate : 48.0 KHz
    Bit depth : 16 bits
    Compression mode : Lossy
    Stream size : 269 MiB (3%)
    Language : Russian
    Audio #2
    ID : 3
    Format : DTS
    Format/Info : Digital Theater Systems
    Codec ID : A_DTS
    Duration : 1h 23mn
    Bit rate mode : Constant
    Bit rate : 1 510 Kbps
    Channel(s) : 6 channels
    Channel positions : Front: L C R, Side: L R, LFE
    Sampling rate : 48.0 KHz
    Bit depth : 24 bits
    Compression mode : Lossy
    Stream size : 906 MiB (10%)
    Language : English
    Text
    ID : 4
    Format : UTF-8
    Codec ID : S_TEXT/UTF8
    Codec ID/Info : UTF-8 Plain Text
    Language : English

    Скриншоты

         


Last edited by BoxeR on 2012-05-16 19:08; edited 1 time in total
Other forum [Profile] [PM]

Delia

Gender:

Longevity: 11 years

Posts: 1821

Торрент-статистика

Post 16-May-2012 15:25 (after 4 hours)

[Quote]

Здесь ,пожалуйста медиаинфо.

_________________
Человек – это канат, натянутый между животным и сверхчеловеком, – канат над пропастью.
В человеке ценно то, что он мост, а не цель. Фридрих Ницше
Other forum [Profile] [PM]
Similar theme
Forum Topic Author Torrent Replies Last Post
./templates/default/images/folder_dl.gif RPG Heroes Of Might And Magic III - Complete & Heroes Chronicles + HD / Герои Меча и Магии 3 - Полное Собрание и Хроники Героев (2001) [Ru] Repack Yuujin92 Clavik
1 | 0

0 | 1023

0

2019-09-15 13:01
Clavik Latest
Display posts from previous:    
Reply to topic

The time now is: Today 01:05

All times are GMT + 3 Hours



You cannot post new topics in this forum
You cannot reply to topics in this forum
You cannot edit your posts in this forum
You cannot delete your posts in this forum
You cannot vote in polls in this forum
You cannot attach files in this forum
You cannot download files in this forum