Today is a free download without charge Download

До первого снега / First Snow [ Марк Фергус (2006) триллер, драма, BDRip 720p]

Reply to topic
 
Author
Message

Delia ®

Gender:

Longevity: 10 years

Posts: 1821

Торрент-статистика

Post 15-May-2012 21:53

[Quote]

До первого снега / First Snow«What if someone looked into your future and didn't see tomorrow?»--
Год выпуска: 2006
Страна: США , Германия
Жанр: триллер, драма, ...
Продолжительность: 01:41:57
Перевод: Профессиональный (многоголосый закадровый)
Субтитры: Russian (srt)
Режиссер: Марк Фергус
Сценарий: Марк Фергус, Хоук Остби
Продюсер: Брайан Ферст, Боб Яри, Шон Ферст, ...
Оператор: Эрик Алан Эдвардс
Композитор: Клифф Мартинес
Художник: Девора Херберт, Марк Алан Дюран, Lahly Poore, ...
Монтаж: Джей Лэш Кэссиди- В ролях: Гай Пирс (Guy Pearce), Стивен Майкл Квезада (Steven Michael Quezada), Дж.К. Симмонс (J.K. Simmons), Николас Бэллас (Nicholas Ballas), Пайпер Перабо (Piper Perabo), Рик Гонсалес (Rick Gonzalez), Уильям Фихтнер (William Fichtner), Дэвид Хаус (David House), Julie Gawkowski, Люче Рэйнс (Luce Rains), Форрест Файр (Forrest Fyre), Gurudarshan, Калли Энн Морган (Callie Anne Morgan), Джо Энн Сото (Jo Ann Soto), Адриана Кордова (Adriana Cordova), Адам Скотт (Adam Scott), Джеки Барроуз (Jackie Burroughs), Roy Costley, Портия Даусон (Portia Dawson), Шерилин Хэйрс (Cherilyn Hayres)
Описание: Пока чинили машину Джимми, так некстати сломавшуюся посреди дороги, он, чтобы скоротать время, решил зайти к старику-предсказателю. От него Джимми узнал, что вскоре дела его пойдут в гору, а самому ему суждено умереть — сразу после того, как выпадет первый снег. Джимми не воспринял слова старика всерьез, но каково же было его смятение, когда предсказания начали сбываться! И поскольку температура неуклонно понижается, он не может не думать о самом главном и зловещем пророчестве...-Рейтинг MPAA: -- --Качество: BDRip
Формат: MKV
Видео кодек: H.264 (AVC)
Аудио кодеk: AC3
Видео: 1280x544 (2.35:1), 23.976 fps, AVC, 5 351 Kbps
Аудио: Russian, AC3, 384 Kbps, 48.0 KHz, 6 ch
Аудио #2: English, AC3, 384 Kbps, 48.0 KHz, 6 ch

МедиаИнфо

Код:
General
Complete name                    : First Snow ( 2006)BDRip720p-F.HD .mkv
Format                           : Matroska
File size                        : 4.35 GiB
Duration                         : 1h 41mn
Overall bit rate                 : 6 115 Kbps
Encoded date                     : UTC 2012-05-15 17:08:26
Writing application              : mkvmerge v5.4.0 ('Piper') built on Mar 10 2012 13:34:39
Writing library                  : libebml v1.2.3 + libmatroska v1.3.0
Video
ID                               : 1
Format                           : AVC
Format/Info                      : Advanced Video Codec
Format profile                   : [email protected]
Format settings, CABAC           : Yes
Format settings, ReFrames        : 8 frames
Muxing mode                      : Container [email protected]
Codec ID                         : V_MPEG4/ISO/AVC
Duration                         : 1h 41mn
Bit rate                         : 5 351 Kbps
Width                            : 1 280 pixels
Height                           : 544 pixels
Display aspect ratio             : 2.35:1
Frame rate                       : 23.976 fps
Color space                      : YUV
Chroma subsampling               : 4:2:0
Bit depth                        : 8 bits
Scan type                        : Progressive
Bits/(Pixel*Frame)               : 0.321
Stream size                      : 3.72 GiB (85%)
Writing library                  : x264 core 122 r2184 5c85e0a
Encoding settings                : cabac=1 / ref=8 / deblock=1:-3:-3 / analyse=0x3:0x113 / me=umh / subme=10 / psy=1 / psy_rd=1.00:0.15 / mixed_ref=1 / me_range=32 / chroma_me=1 / trellis=2 / 8x8dct=1 / cqm=0 / deadzone=21,11 / fast_pskip=0 / chroma_qp_offset=-3 / threads=6 / sliced_threads=0 / nr=0 / decimate=1 / interlaced=0 / bluray_compat=0 / constrained_intra=0 / bframes=8 / b_pyramid=2 / b_adapt=2 / b_bias=0 / direct=3 / weightb=1 / open_gop=0 / weightp=2 / keyint=240 / keyint_min=23 / scenecut=40 / intra_refresh=0 / rc=2pass / mbtree=0 / bitrate=5351 / ratetol=1.0 / qcomp=0.70 / qpmin=0 / qpmax=69 / qpstep=4 / cplxblur=20.0 / qblur=0.5 / ip_ratio=1.40 / pb_ratio=1.20 / aq=2:0.90
Color primaries                  : BT.709-5, BT.1361, IEC 61966-2-4, SMPTE RP177
Transfer characteristics         : BT.709-5, BT.1361
Matrix coefficients              : BT.709-5, BT.1361, IEC 61966-2-4 709, SMPTE RP177
Audio #1
ID                               : 2
Format                           : AC-3
Format/Info                      : Audio Coding 3
Mode extension                   : CM (complete main)
Codec ID                         : A_AC3
Duration                         : 1h 41mn
Bit rate mode                    : Constant
Bit rate                         : 384 Kbps
Channel(s)                       : 6 channels
Channel positions                : Front: L C R, Side: L R, LFE
Sampling rate                    : 48.0 KHz
Bit depth                        : 16 bits
Stream size                      : 280 MiB (6%)
Language                         : Russian
Audio #2
ID                               : 3
Format                           : AC-3
Format/Info                      : Audio Coding 3
Mode extension                   : CM (complete main)
Codec ID                         : A_AC3
Duration                         : 1h 41mn
Bit rate mode                    : Constant
Bit rate                         : 384 Kbps
Channel(s)                       : 6 channels
Channel positions                : Front: L C R, Side: L R, LFE
Sampling rate                    : 48.0 KHz
Bit depth                        : 16 bits
Stream size                      : 280 MiB (6%)
Text
ID                               : 4
Format                           : UTF-8
Codec ID                         : S_TEXT/UTF8
Codec ID/Info                    : UTF-8 Plain Text
Language                         : Russian
Menu
00:00:00.000                     : en:Chapter 01
00:05:34.500                     : en:Chapter 02
00:11:31.648                     : en:Chapter 03
00:18:23.852                     : en:Chapter 04
00:23:37.289                     : en:Chapter 05
00:29:32.979                     : en:Chapter 06
00:34:57.052                     : en:Chapter 07
00:42:14.322                     : en:Chapter 08
00:50:34.447                     : en:Chapter 09
00:57:07.172                     : en:Chapter 10
01:04:23.608                     : en:Chapter 11
01:10:56.961                     : en:Chapter 12
01:14:54.280                     : en:Chapter 13
01:20:14.850                     : en:Chapter 14
01:25:23.827                     : en:Chapter 15
01:37:10.198                     : en:Chapter 16
01:41:57.069                     : en:Chapter 17


Скриншоты

     
     

_________________
Человек – это канат, натянутый между животным и сверхчеловеком, – канат над пропастью.
В человеке ценно то, что он мост, а не цель. Фридрих Ницше
Other forum [Profile] [PM]
Display posts from previous:    
Reply to topic

The time now is: Today 12:29

All times are GMT + 3 Hours



You cannot post new topics in this forum
You cannot reply to topics in this forum
You cannot edit your posts in this forum
You cannot delete your posts in this forum
You cannot vote in polls in this forum
You cannot attach files in this forum
You cannot download files in this forum