Today is a free download without charge Download

Скафандр и бабочка / Le scaphandre et le papillon / The Diving Bell and the Butterfly (2007) BDRip [Джулиан Шнабель (2007) драма, биография ,BDRip 720p ]

Reply to topic
 
Author
Message

Delia ®

Gender:

Longevity: 11 years

Posts: 1821

Торрент-статистика

Post 15-May-2012 07:48

[Quote]

Скафандр и бабочка / Le scaphandre et le papillon / The Diving Bell and the Butterfly«Let your imagination set you free»--
Год выпуска: 2007
Страна: США , Франция
Жанр: драма, биография, ...
Продолжительность: 01:51:44
Перевод: Профессиональный (многоголосый закадровый)
Субтитры: Russian ,English (srt)
Режиссер: Джулиан Шнабель
Сценарий: Рональд Харвуд, Жан-Доминик Боби
Продюсер: Кэтлин Кеннеди, Джон Килик, Франсуа-Ксавьер Декраен, ...
Оператор: Януш Камински
Композитор: Пол Кантелон
Художник: Мишель Эрик, Лоран Отт, Оливье Берио
Монтаж: Жюльетт Вельфлин- В ролях: Матье Амальрик (Mathieu Amalric), Эмманюэль Сенье (Emmanuelle Seigner), Мари-Жозе Кроз (Marie-Josee Croze), Анн Косиньи (Anne Consigny), Патрик Шенэ (Patrick Chesnais), Нильс Ареструп (Niels Arestrup), Олац Лопез Гармендия (Olatz Lopez Garmendia), Жан-Пьер Кассель (Jean-Pierre Cassel), Марина Хэндс (Marina Hands), Макс фон Сюдов (Max von Sydow), Жерар Уоткинс (Gerard Watkins), Тео Сэмпейо (Theo Sampaio), Фиорелла Кампанелла (Fiorella Campanella), Талина Бояси (Talina Boyaci), Исаак Де Банколе (Isaach De Bankole), Эмма де Кон (Emma de Caunes), Жан-Филипп Экоффе (Jean-Philippe Ecoffey), Николя Ле Риш (Nicolas Le Riche), Анн Альваро (Anne Alvaro), Франсуаза Лебрун (Françoise Lebrun)
Описание: Жан-Доминик Боби, редактор журнала Elle France, в 1995 году в возрасте 43 лет перенес инсульт, в результате которого он был полностью парализован. Подмигивая оставшимся не парализованным левым глазом, когда сидящий рядом человек называл нужную букву, Жан-Доминик рассказал все о своем внутреннем мире, начиная с психологической пытки из-за того, что ты заперт внутри собственного тела, и заканчивая воображаемыми историями о мирах, которые он посещал лишь в своих мечтах.-Рейтинг MPAA: -- --Качество: BDRip
Формат: MKV
Видео кодек: H.264 (AVC)
Аудио кодеk: AC3
Видео: 1280x688 (1.860:1), 24.000 fps, AVC, 5 222 Kbps
Аудио: AC3, 384 Kbps, 48.0 KHz, 6 ch

МедиаИнфо

Код:
General
Complete name                    : Scaphandre et le papillon.2007.BDrip-F.HD.mkv
Format                           : Matroska
File size                        : 4.37 GiB
Duration                         : 1h 51mn
Overall bit rate                 : 5 603 Kbps
Encoded date                     : UTC 2012-05-15 04:02:57
Writing application              : mkvmerge v5.4.0 ('Piper') built on Mar 10 2012 13:34:39
Writing library                  : libebml v1.2.3 + libmatroska v1.3.0
Video
ID                               : 1
Format                           : AVC
Format/Info                      : Advanced Video Codec
Format profile                   : [email protected]
Format settings, CABAC           : Yes
Format settings, ReFrames        : 8 frames
Muxing mode                      : Container [email protected]
Codec ID                         : V_MPEG4/ISO/AVC
Duration                         : 1h 51mn
Bit rate                         : 5 222 Kbps
Width                            : 1 280 pixels
Height                           : 688 pixels
Display aspect ratio             : 1.860
Frame rate                       : 24.000 fps
Color space                      : YUV
Chroma subsampling               : 4:2:0
Bit depth                        : 8 bits
Scan type                        : Progressive
Bits/(Pixel*Frame)               : 0.247
Stream size                      : 3.99 GiB (91%)
Writing library                  : x264 core 122 r2184 5c85e0a
Encoding settings                : cabac=1 / ref=8 / deblock=1:-3:-3 / analyse=0x3:0x113 / me=umh / subme=10 / psy=1 / psy_rd=1.00:0.15 / mixed_ref=1 / me_range=32 / chroma_me=1 / trellis=2 / 8x8dct=1 / cqm=0 / deadzone=21,11 / fast_pskip=0 / chroma_qp_offset=-3 / threads=6 / sliced_threads=0 / nr=0 / decimate=1 / interlaced=0 / bluray_compat=0 / constrained_intra=0 / bframes=7 / b_pyramid=2 / b_adapt=2 / b_bias=0 / direct=3 / weightb=1 / open_gop=0 / weightp=2 / keyint=240 / keyint_min=24 / scenecut=40 / intra_refresh=0 / rc=2pass / mbtree=0 / bitrate=5222 / ratetol=1.0 / qcomp=0.70 / qpmin=0 / qpmax=69 / qpstep=4 / cplxblur=20.0 / qblur=0.5 / ip_ratio=1.40 / pb_ratio=1.30 / aq=2:0.90
Color primaries                  : BT.709-5, BT.1361, IEC 61966-2-4, SMPTE RP177
Transfer characteristics         : BT.709-5, BT.1361
Matrix coefficients              : BT.709-5, BT.1361, IEC 61966-2-4 709, SMPTE RP177
Audio
ID                               : 2
Format                           : AC-3
Format/Info                      : Audio Coding 3
Mode extension                   : CM (complete main)
Codec ID                         : A_AC3
Duration                         : 1h 51mn
Bit rate mode                    : Constant
Bit rate                         : 384 Kbps
Channel(s)                       : 6 channels
Channel positions                : Front: L C R, Side: L R, LFE
Sampling rate                    : 48.0 KHz
Bit depth                        : 16 bits
Stream size                      : 307 MiB (7%)
Language                         : Russian
Text #1
ID                               : 3
Format                           : UTF-8
Codec ID                         : S_TEXT/UTF8
Codec ID/Info                    : UTF-8 Plain Text
Language                         : Russian
Text #2
ID                               : 4
Format                           : UTF-8
Codec ID                         : S_TEXT/UTF8
Codec ID/Info                    : UTF-8 Plain Text

Знаете ли Вы, что...

» От роли Жана-Доминика Боби откзался Джонни Депп, сославшись на недостаточно хороший французский.


Скриншоты

       

_________________
Человек – это канат, натянутый между животным и сверхчеловеком, – канат над пропастью.
В человеке ценно то, что он мост, а не цель. Фридрих Ницше
Other forum [Profile] [PM]
Display posts from previous:    
Reply to topic

The time now is: Today 01:57

All times are GMT + 3 Hours



You cannot post new topics in this forum
You cannot reply to topics in this forum
You cannot edit your posts in this forum
You cannot delete your posts in this forum
You cannot vote in polls in this forum
You cannot attach files in this forum
You cannot download files in this forum