Today is a free download without charge Download

Военная разведка. Первый удар / Сезон: 2 Серии: 1-8 из 8 (Алексей Праздников) [2012, военный фильм, приключения, DVDRip]

Reply to topic
 
Author
Message

Hancock ®

Gender:

Longevity: 9 years 7 months

Posts: 73

Торрент-статистика

Post 14-May-2012 21:09

[Quote]

Военная разведка. Первый удар Год выпуска: 2012
Производство: Телепроект, кинокомпания "Gree"
Жанр: военный фильм, приключения
Продолжительность: 8 х ~00:51:00
Субтитры: нет
Режиссёр: Алексей Праздников
В ролях: Павел Трубинер, Филипп Азаров, Степан Бекетов, Борис Щербаков, Сергей Кошонин, Артур Ваха, Линда Лазарева, Николай Буров, Аркадий Шароградский, Елена Купрашевич, Андрей Кузнецов, Мария Жиганова, Федор Черных, Дарья Воронцова, Наталья Ермолаева, Геннадий Меньшиков
Описание: План захвата СССР «Барбаросса» в действии. Фашисты широко шагают по оккупированным советским землям. Сначала нашим героям предстоит вырвать из лап врага захваченных на отдыхе советских ученых и их семьи. Почти невыполнимым заданием станет для них ликвидация стратегического советского завода на оккупированной немцами территории. Тонкой игры потребует миссия возвращения в немецкий тыл советского резидента, ведь нужно не только доставить его до места назначения, но и обеспечить ему безупречное алиби! Четвертым заданием наших разведчиков станет дестабилизация «нового экономического порядка», введенного немцами на новых землях рейха. Для этого нашим героям предстоит уничтожить не только «золотой» транспорт с рейхсмарками, но и ликвидировать «мозг» новой экономики — гаулейтера Белоруссии.
Как водится, разведчики столкнуться с умным и хитрым врагом и почти невыполнимыми заданиями, но отчаянная смелость, смекалка и верная дружба помогут им с честью выполнить все «особые поручения».-Качество видео: DVDRip
Формат видео: AVI
Видео: 720x400 (16:9), 25 fps, XVID ~ 1328 kbps avg, 0.184 bit/pixel
Аудио: AC3 2.0 (192Kbps) 48.0 KHZ

MediaInfo

Общее
Полное имя : Voennaya.razvedka.2012.O.DVDRip\1.avi
Формат : AVI
Формат/Информация : Audio Video Interleave
Размер файла : 567 Мбайт
Продолжительность : 51 м.
Общий поток : 1529 Кбит/сек
Программа кодирования : VirtualDubMod 1.5.10.3 | www.virtualdub-fr.org || (build 2550/release)
Библиотека кодирования : VirtualDubMod build 2550/release
Видео
Идентификатор : 0
Формат : MPEG-4 Visual
Профиль формата : Advanced [email protected]
Параметр BVOP формата : 1
Параметр QPel формата : Нет
Параметр GMC формата : Без точки перехода
Параметр матрицы формата : Выборочная
Идентификатор кодека : XVID
Идентификатор кодека/Подсказка : XviD
Продолжительность : 51 м.
Битрейт : 1328 Кбит/сек
Ширина : 720 пикселей
Высота : 400 пикселей
Соотношение сторон : 16:9
Частота кадров : 25,000 кадров/сек
Цветовое пространство : YUV
Субдискретизация насыщенности : 4:2:0
Битовая глубина : 8 бит
Тип развёртки : Прогрессивная
Метод сжатия : С потерями
Бит/(Пиксели*Кадры) : 0.184
Размер потока : 492 Мбайт (87%)
Библиотека кодирования : XviD 1.2.1 (UTC 2008-12-04)
Аудио
Идентификатор : 1
Формат : AC-3
Формат/Информация : Audio Coding 3
Расширение режима : CM (complete main)
Идентификатор кодека : 2000
Продолжительность : 51 м.
Вид битрейта : Постоянный
Битрейт : 192 Кбит/сек
Каналы : 2 канала
Расположение каналов : Front: L R
Частота : 48,0 КГц
Битовая глубина : 16 бит
Метод сжатия : С потерями
Размер потока : 71,2 Мбайт (13%)
Выравнивание : Разделение по промежуткам
Продолжительность промежутка : 40 мс. (1,00 видеокадр)
Время предзагрузки промежутка : 500 мс.

Cкриншоты

     

_________________


Last edited by Hancock on 2012-05-21 20:21; edited 1 time in total
Other forum [Profile] [PM]

Hancock ®

Gender:

Longevity: 9 years 7 months

Posts: 73

Торрент-статистика

Post 14-May-2012 21:24 (after 15 minutes)

[Quote]

да стоит макс я такие военые фильмы обажаю

_________________
Other forum [Profile] [PM]
Display posts from previous:    
Reply to topic

The time now is: Today 15:24

All times are GMT + 3 Hours



You cannot post new topics in this forum
You cannot reply to topics in this forum
You cannot edit your posts in this forum
You cannot delete your posts in this forum
You cannot vote in polls in this forum
You cannot attach files in this forum
You cannot download files in this forum