Today is a free download without charge Download

Кремень / Серии: 1-4 из 4 (Владимир Епифанцев, Александр Аншютц) [2012, Россия, боевик, криминал, детектив, DVD9] R5 «Парадиз Медиа»

Reply to topic
 
Author
Message

Koralina ®

Longevity: 10 years

Posts: 994

Location: Lithuania

Торрент-статистика

Post 14-May-2012 00:52

[Quote]

Кремень«Его правда - его оружие» Страна: Россия
Студия: Тримира, ДТ Продакшн
Жанр: боевик, криминал, детектив
Год выпуска: 2012
Дата выхода DVD: 22 мая 2012, «Парадиз Медиа»
Продолжительность: 4 x 00:50:00
Перевод: Оригинал [Лицензия]
Cубтитры: нет
Оригинальная аудиодорожка: русский
Режиссер: Владимир Епифанцев, Александр Аншютц
В ролях: Владимир Епифанцев, Павел Климов, Анастасия Веденская, Сергей Векслер, Иван Краско, Юрий Чурсин, Эдуард Федашко, Сергей Мурзин, Михаил Сидаш
Описание: Приехав, в небольшой российский городок, чтобы навестить старого боевого товарища, майор краповых беретов Шаманов становится свидетелем страшных событий — местное население, простые люди, лишены прав, обесчещены, их достоинство растоптано. Шаманову остается либо пройти мимо, закрыв глаза, либо начать действовать, противопоставив себя порочной властной системе, годами оттачиваемой и набравшей смертельную силу…

Качество: DVD9 R5
Формат: DVD-Video
Видео кодек: MPEG2
Аудио кодек: AC3
Видео: PAL 16:9 (720x576(0.442)) MPEG Video, 25,000 кадр/сек, 4586 Кбит/сек
Аудио: Russian (Dolby AC3, 6 ch) 448 Кбит/сек, 48,0 КГц

DVDInfo

Title:
Size: 7.81 Gb ( 8 192 428 KBytes ) - DVD-9
Enabled regions: 1, 2, 3, 4, 5, 6, 7, 8
VTS_01 :
Play Length: 00:00:05
Video: PAL 4:3 (720x576) VBR
VTS_02 :
Play Length: 00:00:16
Video: PAL 16:9 (720x576) VBR, Auto Pan&Scan
Audio:
Not specified (Dolby AC3, 2 ch)
VTS_03 :
Play Length: 00:00:07
Video: PAL 16:9 (720x576) VBR, Auto Pan&Scan
Audio:
Not specified (Dolby AC3, 2 ch)
VTS_04 :
Play Length: 00:51:12
Video: PAL 16:9 (720x576) VBR, Auto Pan&Scan
Audio:
Russian (Dolby AC3, 6 ch)
VTS_05 :
Play Length: 00:49:10
Video: PAL 16:9 (720x576) VBR, Auto Pan&Scan
Audio:
Russian (Dolby AC3, 6 ch)
VTS_06 :
Play Length: 00:48:10
Video: PAL 16:9 (720x576) VBR, Auto Pan&Scan
Audio:
Russian (Dolby AC3, 6 ch)
VTS_07 :
Play Length: 00:49:05
Video: PAL 16:9 (720x576) VBR, Auto Pan&Scan
Audio:
Russian (Dolby AC3, 6 ch)
Menu Video:
PAL 16:9 (720x576) VBR
Auto Pan&Scan, Auto Letterboxed
Menu English Language Unit :
Root Menu

MediaInfo

Общее
Полное имя : J:\Новинки 2012\Kremen.2012.DVD9\VIDEO_TS\VTS_04_1.VOB
Формат : MPEG-PS
Размер файла : 1024 Мбайт
Продолжительность : 27 м.
Режим общего битрейта : Переменный
Общий поток : 5136 Кбит/сек
Видео
Идентификатор : 224 (0xE0)
Формат : MPEG Video
Версия формата : Version 2
Профиль формата : [email protected]
Параметр BVOP формата : Да
Параметр матрицы формата : Выборочная
Продолжительность : 27 м.
Вид битрейта : Переменный
Битрейт : 4586 Кбит/сек
Максимальный битрейт : 8000 Кбит/сек
Ширина : 720 пикселей
Высота : 576 пикселей
Соотношение сторон : 4:3
Частота кадров : 25,000 кадров/сек
Стандарт вещания : PAL
Цветовое пространство : YUV
Субдискретизация насыщенности : 4:2:0
Битовая глубина : 8 бит
Тип развёртки : Чересстрочная
Порядок развёртки : Нижнее поле первое
Метод сжатия : С потерями
Бит/(Пиксели*Кадры) : 0.442
Размер потока : 914 Мбайт (89%)
Аудио
Идентификатор : 189 (0xBD)-128 (0x80)
Формат : AC-3
Формат/Информация : Audio Coding 3
Расширение режима : CM (complete main)
Параметр Endianness формата : Big
Режим смешивания : DVD-Video
Продолжительность : 27 м.
Вид битрейта : Постоянный
Битрейт : 448 Кбит/сек
Каналы : 6 каналов
Расположение каналов : Front: L C R, Side: L R, LFE
Частота : 48,0 КГц
Битовая глубина : 16 бит
Метод сжатия : С потерями
Размер потока : 89,3 Мбайт (9%)

Скриншоты меню

   

Скриншоты фильма

                   

_________________
Other forum [Profile] [PM]
Display posts from previous:    
Reply to topic

The time now is: Today 22:19

All times are GMT + 3 Hours



You cannot post new topics in this forum
You cannot reply to topics in this forum
You cannot edit your posts in this forum
You cannot delete your posts in this forum
You cannot vote in polls in this forum
You cannot attach files in this forum
You cannot download files in this forum