Today is a free download without charge Download

Последнее завещание Нобеля / Nobels testamente (Петер Флинт, 2012) DVDRip

Reply to topic
 
Author
Message

KirovSOFT ®

Gender:

Longevity: 9 years 2 months

Posts: 998

Location: Кировская область -Оричи

Торрент-статистика

Post 13-May-2012 22:14

[Quote]

-Последнее завещание Нобеля / Nobels testamente (2012) DVDRip-Не торопись раскрыть эту тайну!
Русское название: Последнее завещание Нобеля
Оригинальное название: Nobels testamente
Год выпуска: 2012
Производство: Швеция | Yellow Bird Films
Жанр: Триллер, Драма, Криминал, Детектив
Перевод: Дублированный [лицензия]
Субтитры: Отсутствуют
Дата мировой премьеры: 2 марта 2012
Дата российской премьеры: 12 апреля 2012, «Каравелла DDC»
Дата выхода DVD релиза: 16 мая 2012, «Кармен Видео»
Режиссер: Петер Флинт
Продюсер: Дженни Гилбертссон, Сюзанна Тайгер
Актеры: Малин Крепин, Бьёрн Чьелльман, Лейф Андре, Кайса Эрнст, Эрик Йоханссон, Феликс Энгстрем, Ричард Ульфзэтер, Андреас Ротлин-Свенссон, Антье Трое, Пер Граффман...
Описание фильма:
Во время торжественного ужина по случаю вручения Нобелевской премии репортер криминальной хроники Аника Бенгцтон становится невольным свидетелем убийства высокопоставленного чиновника. Полиция запрещает ей оглашать какие-либо подробности по делу, но репортер до мозга костей не в силах противиться журналистскому призванию. Аника начинает самостоятельное расследование, которое приводит ее к страшной разгадке.- -Релиз от:
Продолжительность: 01:29:43
Качество видео: DVDRip
Видеокодек: Xvid
Битрейт видео: ~ 1806 Кбит/сек
Размер кадра: 720x304
Аудиокодек: AC3 5.1
Битрейт аудио: 384 kb/s

MI:

Код:
Общее
Полное имя                               : E:\Загрузка\Poslednee.zaveshhanie.Nobelya.2012.D.DVDRip.avi
Формат                                   : AVI
Формат/Информация                        : Audio Video Interleave
Размер файла                             : 1,37 Гбайт
Продолжительность                        : 1 ч. 29 м.
Общий поток                              : 2199 Кбит/сек
Название фильма                          : Poslednee.zaveshhanie.Nobelya_2012.D.DVDRip
Программа кодирования                    : VirtualDubMod 1.5.10.3 (build 2550/release)
Библиотека кодирования                   : VirtualDubMod build 2550/release
Формат оригинала/Имя                     : Movie
Видео
Идентификатор                            : 0
Формат                                   : MPEG-4 Visual
Профиль формата                          : Advanced [email protected]
Параметр BVOP формата                    : 2
Параметр QPel формата                    : Нет
Параметр GMC формата                     : Без точки перехода
Параметр матрицы формата                 : Выборочная
Идентификатор кодека                     : XVID
Идентификатор кодека/Подсказка           : XviD
Продолжительность                        : 1 ч. 29 м.
Битрейт                                  : 1806 Кбит/сек
Ширина                                   : 720 пикселей
Высота                                   : 304 пикселя
Соотношение сторон                       : 2,35:1
Частота кадров                           : 25,000 кадров/сек
Цветовое пространство                    : YUV
Субдискретизация насыщенности            : 4:2:0
Битовая глубина                          : 8 бит
Тип развёртки                            : Прогрессивная
Метод сжатия                             : С потерями
Бит/(Пиксели*Кадры)                      : 0.330
Размер потока                            : 1,12 Гбайт (82%)
Библиотека кодирования                   : XviD 1.2.1 (UTC 2008-12-04)
Аудио
Идентификатор                            : 1
Формат                                   : AC-3
Формат/Информация                        : Audio Coding 3
Расширение режима                        : CM (complete main)
Параметр Endianness формата              : Big
Идентификатор кодека                     : 2000
Продолжительность                        : 1 ч. 29 м.
Вид битрейта                             : Постоянный
Битрейт                                  : 384 Кбит/сек
Каналы                                   : 6 каналов
Расположение каналов                     : Front: L C R, Side: L R, LFE
Частота                                  : 48,0 КГц
Битовая глубина                          : 16 бит
Метод сжатия                             : С потерями
Задержка видео                           : 400 мс.
Размер потока                            : 244 Мбайт (17%)
Выравнивание                             : Разделение по промежуткам
Продолжительность промежутка             : 40  мс. (1,00 видеокадр)
Время предзагрузки промежутка            : 500  мс.
[/spoiler]
Скриншоты:          Приятного просмотра
и не забываем говорить СПАСИБО

_________________


Last edited by KirovSOFT on 2012-05-13 23:05; edited 1 time in total
Other forum [Profile] [PM]
Display posts from previous:    
Reply to topic

The time now is: Today 04:13

All times are GMT + 3 Hours



You cannot post new topics in this forum
You cannot reply to topics in this forum
You cannot edit your posts in this forum
You cannot delete your posts in this forum
You cannot vote in polls in this forum
You cannot attach files in this forum
You cannot download files in this forum