Today is a free download without charge Download

Хроники Нарнии: Покоритель Зари / The Chronicles of Narnia: The Voyage of the Dawn Treader [ Майкл Эптид (2010) Фэнтези, приключения, семейный ,BDRip 1080p ]

Reply to topic
 
Author
Message

Delia ®

Gender:

Longevity: 10 years

Posts: 1821

Торрент-статистика

Post 11-May-2012 11:22

[Quote]

Хроники Нарнии: Покоритель Зари / The Chronicles of Narnia: The Voyage of the Dawn Treader«Назад в волшебство. Назад к надежде. Назад в Нарнию.»--
Год выпуска: 2010
Страна: США
Жанр: фэнтези, приключения, семейный, ...
Продолжительность: 01:52:40
Перевод: Профессиональный (дублированный)
Субтитры: Russian , English (srt)
Режиссер: Майкл Эптид
Сценарий: Кристофер Маркус, Стивен МакФили, Майкл Петрони, ...
Продюсер: Эндрю Адамсон, Марк Джонсон, Филип Стюер, ...
Оператор: Данте Спинотти
Композитор: Дэвид Арнольд
Художник: Бэрри Робисан, Йен Грейси, Дэниэл Мэй, ...
Монтаж: Рик Шэйн- В ролях: Бен Барнс (Ben Barnes), Скандар Кейнс (Skandar Keynes), Джорджи Хенли (Georgie Henley), Уилл Поултер (Will Poulter), Гари Свит (Gary Sweet), Тильда Суинтон (Tilda Swinton), Анна Попплуэлл (Anna Popplewell), Уильям Моусли (William Moseley), Лиам Нисон (Liam Neeson), Саймон Пегг (Simon Pegg), Терри Норрис (Terry Norris), Брюс Спенс (Bruce Spence), Билли Браун (Bille Brown), Лаура Брент (Laura Brent), Колин Муди (Colin Moody), Шэйн Ранги (Shane Rangi), Артур Энджел (Arthur Angel), Арабелла Мортон (Arabella Morton), Рэйчел Блэйкли (Rachel Blakely), Стивен Рук (Steven Rooke)
Описание: Эдмунд, Люси, их кузен Юстас и король Каспиан отплывают на корабле «Покоритель Зари» на поиски друзей отца Каспиана — семи лордов: Ревелиана, Берна, Аргоза, Мавроморна, Октезиана, Рестимара и Рупа, изгнанных во время недолгого правления тирана Мираза.-Рейтинг MPAA: -- --Качество: BDRip1080p
Формат: MKV
Видео кодек: H.264 (AVC)
Аудио кодеk: AC3
Видео: 1920x1080 (16:9), 23.976 fps, AVC, 9 269 Kbps
Аудио: AC3, 448 Kbps, 48.0 KHz, 6 ch
Аудио #2: AC3, 384 Kbps, 48.0 KHz, 6 ch

МедиаИнфо

Код:
General
Complete name                    : Hroniki Narnii 3. Pokoritel' Zari(2010)1080p-F.HD.mkv
Format                           : Matroska
File size                        : 7.95 GiB
Duration                         : 1h 52mn
Overall bit rate                 : 10.1 Mbps
Encoded date                     : UTC 2012-05-11 06:51:25
Writing application              : mkvmerge v5.4.0 ('Piper') built on Mar 10 2012 13:34:39
Writing library                  : libebml v1.2.3 + libmatroska v1.3.0
Video
ID                               : 1
Format                           : AVC
Format/Info                      : Advanced Video Codec
Format profile                   : [email protected]
Format settings, CABAC           : Yes
Format settings, ReFrames        : 4 frames
Muxing mode                      : Container [email protected]
Codec ID                         : V_MPEG4/ISO/AVC
Duration                         : 1h 52mn
Bit rate                         : 9 269 Kbps
Width                            : 1 920 pixels
Height                           : 1 080 pixels
Display aspect ratio             : 16:9
Frame rate                       : 23.976 fps
Color space                      : YUV
Chroma subsampling               : 4:2:0
Bit depth                        : 8 bits
Scan type                        : Progressive
Bits/(Pixel*Frame)               : 0.186
Stream size                      : 7.13 GiB (90%)
Writing library                  : x264 core 122 r2184 5c85e0a
Encoding settings                : cabac=1 / ref=4 / deblock=1:-3:-3 / analyse=0x3:0x113 / me=umh / subme=10 / psy=1 / psy_rd=1.00:0.00 / mixed_ref=1 / me_range=48 / chroma_me=1 / trellis=2 / 8x8dct=1 / cqm=0 / deadzone=21,11 / fast_pskip=0 / chroma_qp_offset=-2 / threads=6 / sliced_threads=0 / nr=0 / decimate=1 / interlaced=0 / bluray_compat=0 / constrained_intra=0 / bframes=7 / b_pyramid=2 / b_adapt=2 / b_bias=0 / direct=3 / weightb=1 / open_gop=0 / weightp=2 / keyint=240 / keyint_min=23 / scenecut=40 / intra_refresh=0 / rc=2pass / mbtree=0 / bitrate=9269 / ratetol=1.0 / qcomp=0.70 / qpmin=0 / qpmax=69 / qpstep=4 / cplxblur=20.0 / qblur=0.5 / ip_ratio=1.40 / pb_ratio=1.30 / aq=2:0.90
Color primaries                  : BT.709-5, BT.1361, IEC 61966-2-4, SMPTE RP177
Transfer characteristics         : BT.709-5, BT.1361
Matrix coefficients              : BT.709-5, BT.1361, IEC 61966-2-4 709, SMPTE RP177
Audio #1
ID                               : 2
Format                           : AC-3
Format/Info                      : Audio Coding 3
Mode extension                   : CM (complete main)
Codec ID                         : A_AC3
Duration                         : 1h 52mn
Bit rate mode                    : Constant
Bit rate                         : 448 Kbps
Channel(s)                       : 6 channels
Channel positions                : Front: L C R, Side: L R, LFE
Sampling rate                    : 48.0 KHz
Bit depth                        : 16 bits
Stream size                      : 361 MiB (4%)
Language                         : Russian
Audio #2
ID                               : 3
Format                           : AC-3
Format/Info                      : Audio Coding 3
Mode extension                   : CM (complete main)
Codec ID                         : A_AC3
Duration                         : 1h 52mn
Bit rate mode                    : Constant
Bit rate                         : 384 Kbps
Channel(s)                       : 6 channels
Channel positions                : Front: L C R, Side: L R, LFE
Sampling rate                    : 48.0 KHz
Bit depth                        : 16 bits
Stream size                      : 309 MiB (4%)
Text #1
ID                               : 4
Format                           : UTF-8
Codec ID                         : S_TEXT/UTF8
Codec ID/Info                    : UTF-8 Plain Text
Language                         : Russian
Text #2
ID                               : 5
Format                           : UTF-8
Codec ID                         : S_TEXT/UTF8
Codec ID/Info                    : UTF-8 Plain Text
Title                            : SDH
Menu
00:00:00.000                     : en:Chapter 01
00:04:28.476                     : en:Chapter 02
00:07:37.039                     : en:Chapter 03
00:11:58.259                     : en:Chapter 04
00:15:22.463                     : en:Chapter 05
00:20:06.288                     : en:Chapter 06
00:27:14.507                     : en:Chapter 07
00:32:20.688                     : en:Chapter 08
00:36:46.370                     : en:Chapter 09
00:39:51.597                     : en:Chapter 10
00:41:56.388                     : en:Chapter 11
00:45:21.927                     : en:Chapter 12
00:47:51.493                     : en:Chapter 13
00:52:52.544                     : en:Chapter 14
00:58:04.939                     : en:Chapter 15
01:01:51.332                     : en:Chapter 16
01:05:43.731                     : en:Chapter 17
01:08:20.805                     : en:Chapter 18
01:10:49.912                     : en:Chapter 19
01:16:55.027                     : en:Chapter 20
01:20:23.568                     : en:Chapter 21
01:23:48.314                     : en:Chapter 22
01:28:23.506                     : en:Chapter 23
01:32:30.461                     : en:Chapter 24
01:35:58.753                     : en:Chapter 25
01:38:07.464                     : en:Chapter 26
01:40:55.549                     : en:Chapter 27
01:45:06.967                     : en:Chapter 28
01:52:40.503                     : en:Chapter 29

Знаете ли Вы, что...

» Фильм снят по произведению Клайва Стейплза Льюиса.
» Основные съемки фильма «Хроники Нарнии. Покоритель Зари» начались в штате Квинсленд, Австралия, 27 июля 2009 г., где осуществлялся полностью весь процесс производства, занявший 90 дней. Павильонные съемки проводились в нескольких киносъемочных павильонах студии Warner Roadshow в Голд Коуст.
» На морском мысе Кливленд Пойнт был создан заглавный персонаж фильма, величественный Покоритель Зари. После съемок под открытым небом, конструкцию высотой 140 футов и весом 125 тон разобрали более чем на пятьдесят элементов и отвезли обратно на студию, чтобы снимать дальше в павильоне. Процесс съемок завершился в ноябре 2009 г.


Скриншоты

     
     

_________________
Человек – это канат, натянутый между животным и сверхчеловеком, – канат над пропастью.
В человеке ценно то, что он мост, а не цель. Фридрих Ницше
Other forum [Profile] [PM]
Similar theme
Forum Topic Author Torrent Replies Last Post
./templates/default/images/folder_dl.gif RPG Heroes Of Might And Magic III - Complete & Heroes Chronicles + HD / Герои Меча и Магии 3 - Полное Собрание и Хроники Героев (2001) [Ru] Repack Yuujin92 Clavik
1 | 0

0 | 1009

0

2019-09-15 13:01
Clavik Latest
Display posts from previous:    
Reply to topic

The time now is: Today 12:12

All times are GMT + 3 Hours



You cannot post new topics in this forum
You cannot reply to topics in this forum
You cannot edit your posts in this forum
You cannot delete your posts in this forum
You cannot vote in polls in this forum
You cannot attach files in this forum
You cannot download files in this forum