Today is a free download without charge Download

Они сражались за Родину (Сергей Бондарчук) [1975, СССР, драма, военный, история, BDRip 720p] Original Rus

Reply to topic
 
Author
Message

Omen ®

Longevity: 8 years 10 months

Posts: 181086

Торрент-статистика

Post 08-Jul-2015 09:03

[Quote]

Они сражались за Родину
Год выпуска: 1975
Страна: СССР
Производство: Киностудия «Мосфильм»
Жанр: Драма, военный, история
Продолжительность: 02:37:25
Перевод: не требуется
Оригинальная аудиодорожка: русский
Субтитры: нет
Режиссёр: Сергей Бондарчук
В ролях: Василий Шукшин, Вячеслав Тихонов, Сергей Бондарчук, Георгий Бурков, Юрий Никулин, Иван Лапиков, Николай Губенко, Андрей Ростоцкий, Николай Волков, Николай Шутько и др.
Описание: Июль 1942 года. На подступах к Сталинграду обескровленные, измотанные советские войска ведут тяжёлые оборонительные бои, неся огромные потери... Фильм рассказывает о подвиге рядовых солдат, любви к родной земле, об истинной цене победы...

Release Group: SbR
Сэмпл
Качество: BDRip 720p
Формат: MKV
Видео: MPEG-4 AVC: ~9832 kbps / 992x720 / 23.976 fps / 1.378
Аудио: Russian: DTS / 5.1 / 48 kHz / 1509 kbps / 24-bit | Оригинальный
Аудио: Russian: AC-3 / 5.1 / 48 kHz / 448 kbps / 16-bit | Оригинальный
Аудио: Russian: FLAC / 1.0 / 48 kHz / 693 kbps / 24-bit | Оригинальный

MediaInfoXP

GeneralUnique ID : 225163203634228626937613872508221053444 (0xA964DB0A430357BE810516DDFA28DA04)Complete name : H:\Они.сражались.за.Родину.1975.720p.BluRay.Rus.x264-SbR.mkvFormat : MatroskaFormat version : Version 4 / Version 2File size : 13.8 GiBDuration : 2h 38mnOverall bit rate mode : VariableOverall bit rate : 12.4 MbpsEncoded date : UTC 2015-07-07 13:24:12Writing application : mkvmerge v7.9.0 ('Birds') 64bitWriting library : libebml v1.3.1 + libmatroska v1.4.2Attachements : cover.jpgDURATION : 02:38:57.184000000NUMBER_OF_FRAMES : 894111NUMBER_OF_BYTES : 1798951332_STATISTICS_WRITING_APP : mkvmerge v7.9.0 ('Birds') 64bit_STATISTICS_WRITING_DATE_UTC : 2015-07-07 13:24:12_STATISTICS_TAGS : BPS DURATION NUMBER_OF_FRAMES NUMBER_OF_BYTES
VideoID : 1Format : AVCFormat/Info : Advanced Video CodecFormat profile : [email protected] settings, CABAC : YesFormat settings, ReFrames : 11 framesCodec ID : V_MPEG4/ISO/AVCDuration : 2h 38mnWidth : 992 pixelsHeight : 720 pixelsDisplay aspect ratio : 1.378Frame rate mode : ConstantFrame rate : 23.976 fpsColor space : YUVChroma subsampling : 4:2:0Bit depth : 8 bitsScan type : ProgressiveWriting library : x264 core 146 r0+2586 e393126 t_mod_Custom [[email protected] X86_64]Encoding settings : cabac=1 / ref=11 / deblock=1:-3:-3 / analyse=0x3:0x133 / me=esa / subme=9 / psy=1 / fade_compensate=0.00 / psy_rd=1.05:0.05 / mixed_ref=1 / me_range=24 / chroma_me=1 / trellis=2 / 8x8dct=1 / cqm=0 / deadzone=21,11 / fast_pskip=0 / chroma_qp_offset=-3 / threads=6 / lookahead_threads=1 / sliced_threads=0 / nr=0 / decimate=1 / interlaced=0 / bluray_compat=0 / constrained_intra=0 / fgo=0 / bframes=12 / b_pyramid=2 / b_adapt=2 / b_bias=0 / direct=3 / weightb=1 / open_gop=0 / weightp=2 / keyint=250 / keyint_min=23 / scenecut=40 / intra_refresh=0 / rc_lookahead=60 / rc=crf / mbtree=0 / crf=16.0000 / qcomp=0.60 / qpmin=0:0:0 / qpmax=69:69:69 / qpstep=4 / vbv_maxrate=62500 / vbv_bufsize=78125 / crf_max=0.0 / nal_hrd=none / filler=0 / ip_ratio=1.40 / pb_ratio=1.30 / aq=3:0.80 / aq-sensitivity=10.00 / aq-factor=1.00:1.00:1.00 / aq2=0 / aq3=0Language : EnglishDefault : YesForced : NoColor range : LimitedColor primaries : BT.709Transfer characteristics : BT.709Matrix coefficients : BT.709DURATION : 02:37:25.311000000NUMBER_OF_FRAMES : 226461NUMBER_OF_BYTES : 11609270985_STATISTICS_WRITING_APP : mkvmerge v7.9.0 ('Birds') 64bit_STATISTICS_WRITING_DATE_UTC : 2015-07-07 13:24:12_STATISTICS_TAGS : BPS DURATION NUMBER_OF_FRAMES NUMBER_OF_BYTES
Audio #1ID : 2Format : DTSFormat/Info : Digital Theater SystemsMode : 16Format settings, Endianness : BigCodec ID : A_DTSDuration : 2h 38mnBit rate mode : ConstantBit rate : 1 509 KbpsChannel(s) : 6 channelsChannel positions : Front: L C R, Side: L R, LFESampling rate : 48.0 KHzBit depth : 24 bitsCompression mode : LossyStream size : 1.68 GiB (12%)Language : RussianDefault : YesForced : No
Audio #2ID : 3Format : AC-3Format/Info : Audio Coding 3Mode extension : CM (complete main)Format settings, Endianness : BigCodec ID : A_AC3Duration : 2h 38mnBit rate mode : ConstantBit rate : 448 KbpsChannel(s) : 6 channelsChannel positions : Front: L C R, Side: L R, LFESampling rate : 48.0 KHzCompression mode : LossyStream size : 509 MiB (4%)Language : RussianDefault : NoForced : No
Audio #3ID : 4Format : FLACFormat/Info : Free Lossless Audio CodecCodec ID : A_FLACDuration : 2h 38mnBit rate mode : VariableChannel(s) : 1 channelSampling rate : 48.0 KHzBit depth : 24 bitsWriting library : libFLAC 1.2.1 (UTC 2007-09-17)Language : RussianDefault : NoForced : No
Menu00:00:00.000 : en:00:00:00.00000:07:34.454 : en:00:07:34.45400:18:17.096 : en:00:18:17.09600:24:18.457 : en:00:24:18.45700:31:00.859 : en:00:31:00.85900:41:29.487 : en:00:41:29.48700:50:25.022 : en:00:50:25.02200:58:38.515 : en:00:58:38.51501:12:39.355 : en:01:12:39.35501:21:33.514 : en:01:21:33.51401:31:06.294 : en:01:31:06.29401:41:02.682 : en:01:41:02.68201:48:47.354 : en:01:48:47.35401:54:57.724 : en:01:54:57.72402:02:08.947 : en:02:02:08.94702:10:55.681 : en:02:10:55.68102:18:56.161 : en:02:18:56.16102:28:51.798 : en:02:28:51.798

Скриншот с названием фильма

Скриншоты

Other forum [Profile] [PM]
Display posts from previous:    
Reply to topic

The time now is: Today 13:25

All times are GMT + 3 Hours



You cannot post new topics in this forum
You cannot reply to topics in this forum
You cannot edit your posts in this forum
You cannot delete your posts in this forum
You cannot vote in polls in this forum
You cannot attach files in this forum
You cannot download files in this forum