Today is a free download without charge Download

Пионеры-герои (Наталья Кудряшова) [2015, Россия, Драма, WEB-DL 720p] + Original Rus

Reply to topic
 
Author
Message

Omen ®

Longevity: 8 years 10 months

Posts: 181086

Торрент-статистика

Post 07-Jul-2015 21:18

[Quote]

Пионеры-герои
Страна: Россия
Студия: Кинокомпания CTB
Жанр: Драма
Год выпуска: 2015
Продолжительность: 01:55:22
Перевод: Не требуется
Cубтитры: нет
Оригинальная аудиодорожка: русский
Режиссер: Наталья Кудряшова
В ролях: Наталья Кудряшова, Дарья Мороз, Алексей Митин, Александр Усердин, Светлана Письмиченко, Ёла Санько, Юрий Кузнецов, Александр Обласов, Владимир Капустин, Жанна Демихова
Описание: Ольга, Катя и Андрей давно приехали в Москву, они дружат со школы. Они вполне успешны. Ольга — актриса, Катя — работает в крупном PR-агентстве, Андрей политический аналитик. Они покупают машины, берут ипотеки, строят дачи. Живут как все. Но это не приносит им ни счастья, ни удовлетворения. Ощущение, «что все вроде нормально, но что-то не так» — лейтмотив жизни сегодняшних тридцатилетних. Их детство пришлось на советскую пору — когда дети мечтали о подвигах, верили в шпионов и светлое будущее, и никто не ожидал, что мечту о подвиге заменит мечта о стабильности. Люди больше не мечтают о великом. Они просто живут.
Бонусы: Награды
Берлинский кинофестиваль, 2015 год
Номинации (1):
Лучший дебют (Наталья Кудряшова)
Кинотавр, 2015 год
Победитель (1):
Диплом гильдии киноведов и кинокритиков
Номинации (1):
Главный приз
Сэмпл: http://sendfile.su/1135291
Тип релиза: WEB-DL 720p
Контейнер: MKV
Видео: MPEG-4 AVC, 1280x532, (2.40:1), 3 908 Kbps, 24.000 fps
Аудио: Russian, АС3, 6 channels, 48.0 KHz, 16 bits, 384 Kbps

MediaInfo

General
Unique ID : 203829094595920081707824240609232730528 (0x99580E412C4E32369AADA8D99C90B9A0)
Complete name : G:\просмотр\Pionery-geroi.2015.O.WEB-DL.720p.mkv
Format : Matroska
Format version : Version 4 / Version 2
File size : 3.53 GiB
Duration : 1h 55mn
Overall bit rate : 4 379 Kbps
Encoded date : UTC 2015-07-07 04:12:22
Writing application : mkvmerge v6.5.0 ('Isn't she lovely') built on Oct 20 2013 12:50:05
Writing library : libebml v1.3.0 + libmatroska v1.4.1
Video
ID : 1
Format : AVC
Format/Info : Advanced Video Codec
Format profile : [email protected]
Format settings, CABAC : No
Format settings, ReFrames : 2 frames
Codec ID : V_MPEG4/ISO/AVC
Duration : 1h 55mn
Bit rate : 3 908 Kbps
Width : 1 280 pixels
Height : 532 pixels
Display aspect ratio : 2.40:1
Frame rate mode : Constant
Frame rate : 24.000 fps
Color space : YUV
Chroma subsampling : 4:2:0
Bit depth : 8 bits
Scan type : Progressive
Bits/(Pixel*Frame) : 0.239
Stream size : 3.15 GiB (89%)
Language : Russian
Default : Yes
Forced : No
Color range : Limited
Color primaries : BT.709
Transfer characteristics : BT.709
Matrix coefficients : BT.709
Audio
ID : 2
Format : AC-3
Format/Info : Audio Coding 3
Mode extension : CM (complete main)
Format settings, Endianness : Big
Codec ID : A_AC3
Duration : 1h 55mn
Bit rate mode : Constant
Bit rate : 384 Kbps
Channel(s) : 6 channels
Channel positions : Front: L C R, Side: L R, LFE
Sampling rate : 48.0 KHz
Bit depth : 16 bits
Compression mode : Lossy
Stream size : 317 MiB (9%)
Language : Russian
Default : Yes
Forced : No
Menu
00:00:00.000 : en:Глава 1
00:04:52.000 : en:Глава 2
00:10:07.000 : en:Глава 3
00:13:42.000 : en:Глава 4
00:18:43.000 : en:Глава 5
00:22:49.000 : en:Глава 6
00:27:32.000 : en:Глава 7
00:33:51.000 : en:Глава 8
00:38:00.000 : en:Глава 9
00:43:36.000 : en:Глава 10
00:52:21.000 : en:Глава 11
00:58:53.000 : en:Глава 12
01:05:41.000 : en:Глава 13
01:12:23.000 : en:Глава 14
01:16:59.000 : en:Глава 15
01:22:17.000 : en:Глава 16
01:29:02.000 : en:Глава 17
01:33:45.000 : en:Глава 18
01:38:15.000 : en:Глава 19
01:42:53.000 : en:Глава 20

Скриншоты

Other forum [Profile] [PM]
Display posts from previous:    
Reply to topic

The time now is: Today 22:05

All times are GMT + 3 Hours



You cannot post new topics in this forum
You cannot reply to topics in this forum
You cannot edit your posts in this forum
You cannot delete your posts in this forum
You cannot vote in polls in this forum
You cannot attach files in this forum
You cannot download files in this forum