Today is a free download without charge Download

Военный парад, посвященный 67-й годовщине Победы (2012.05.09) SATRip

Reply to topic
 
Author
Message

Omen ®

Longevity: 9 years

Posts: 181086

Торрент-статистика

Post 10-May-2012 00:12

[Quote]

Военный парад, посвященный 67-й годовщине Победы - Режиссер / Телекомпания: Первый канал
Русское название: Военный парад, посвященный 67-й годовщине Победы
Год выпуска: 2012
Жанр: Документальный
-Описание:
9 мая Первый канал представил своим зрителям трансляцию с Красной площади в Москве, на которой прошел торжественный военный парад, посвященный празднованию 67-й годовщине Дня Победы в Великой Отечественной войне.-Продолжительность: ~ 01:00:33-Видеокодек: DviX
Битрейт видео: ~1850 kb/s
Размер кадра: 720 x 400
Качество видео: SATRip
Аудиокодек: MP3, 2ch.
Битрейт аудио: 128 kb/s
-

MediaInfo

Код:
Формат                           : AVI
Формат/Информация                : Audio Video Interleave
Размер файла                     : 861 Мбайт
Продолжительность                : 1 ч. 0 м.
Общий поток                      : 1988 Кбит/сек
Программа кодирования            : VirtualDubMod 1.5.10.2 (build 2540/release)
Библиотека кодирования           : VirtualDub build 29808/release
Видео
Идентификатор                    : 0
Формат                           : MPEG-4 Visual
Параметр BVOP формата            : 1
Параметр QPel формата            : Нет
Параметр GMC формата             : Без точки перехода
Параметр матрицы формата         : Default (H.263)
Режим смешивания                 : Сжатый битовый поток
Идентификатор кодека             : DX50
Идентификатор кодека/Подсказка   : DivX 5
Продолжительность                : 1 ч. 0 м.
Битрейт                          : 1850 Кбит/сек
Ширина                           : 720 пикселей
Высота                           : 400 пикселей
Соотношение сторон               : 16:9
Частота кадров                   : 25,000 кадров/сек
Цветовое пространство            : YUV
Субдискретизация насыщенности    : 4:2:0
Битовая глубина                  : 8 бит
Тип развёртки                    : Прогрессивная
Метод сжатия                     : С потерями
Бит/(Пиксели*Кадры)              : 0.257
Размер потока                    : 802 Мбайт (93%)
Библиотека кодирования           : DivX 6.8.5 (UTC 2009-08-20)
Аудио
Идентификатор                    : 1
Формат                           : MPEG Audio
Версия формата                   : Version 1
Профиль формата                  : Layer 3
Режим                            : Joint stereo
Расширение режима                : MS Stereo
Идентификатор кодека             : 55
Идентификатор кодека/Подсказка   : MP3
Продолжительность                : 1 ч. 0 м.
Вид битрейта                     : Постоянный
Битрейт                          : 128 Кбит/сек
Каналы                           : 2 канала
Частота                          : 48,0 КГц
Метод сжатия                     : С потерями
Размер потока                    : 55,4 Мбайт (6%)
Выравнивание                     : Соединение по промежуткам
Продолжительность промежутка     : 40  мс. (1,00 видеокадр)
Время предзагрузки промежутка    : 504  мс.
-Скриншоты:
         
         
Other forum [Profile] [PM]
Display posts from previous:    
Reply to topic

The time now is: Today 17:53

All times are GMT + 3 Hours



You cannot post new topics in this forum
You cannot reply to topics in this forum
You cannot edit your posts in this forum
You cannot delete your posts in this forum
You cannot vote in polls in this forum
You cannot attach files in this forum
You cannot download files in this forum