Today is a free download without charge Download

Хроники Нарнии: Лев, колдунья и волшебный шкаф / The Chronicles of Narnia: The Lion, the Witch and the Wardrobe [ Эндрю Адамсон (2005) фэнтези, приключения, семейный, BDRip 1080p]

Reply to topic
 
Author
Message

Delia ®

Gender:

Longevity: 11 years

Posts: 1821

Торрент-статистика

Post 09-May-2012 12:08

[Quote]

Хроники Нарнии: Лев, колдунья и волшебный шкаф / The Chronicles of Narnia: The Lion, the Witch and the Wardrobe«Evil Has Reigned For 100 Years...»--
Год выпуска: 2005
Страна: США , Великобритания
Жанр: фэнтези, приключения, семейный, ...
Продолжительность: 02:22:51
Перевод: Профессиональный (дублированный)
Субтитры: Russian , English (srt)
Режиссер: Эндрю Адамсон
Сценарий: Энн Пикок, Эндрю Адамсон, Кристофер Маркус, ...
Продюсер: Эндрю Адамсон, Дуглас Грешам, К.С. Ходенфилд, ...
Оператор: Доналд МакЭлпайн
Композитор: Гарри Грегсон-Уильямс
Художник: Роджер Форд, Жуль Кук, Карен Мерфи, ...
Монтаж: Сим Эван-Джонс, Джим Мэй- В ролях: Джорджи Хенли (Georgie Henley), Скандар Кейнс (Skandar Keynes), Уильям Моусли (William Moseley), Анна Попплуэлл (Anna Popplewell), Тильда Суинтон (Tilda Swinton), Джеймс МакЭвой (James McAvoy), Джим Броудбент (Jim Broadbent), Киран Шах (Kiran Shah), Джеймс Космо (James Cosmo), Джуди МакИнтош (Judy McIntosh), Элизабет Хоторн (Elizabeth Hawthorne), Патрик Кейк (Patrick Kake), Шэйн Ранги (Shane Rangi), Брэндон Кук (Brandon Cook), Кэсси Кук (Cassie Cook), Моррис Луптон (Morris Lupton), Шелли Эдвардс (Shelly Edwards), Сьюзэн Хелдэйн (Susan Haldane), Маргарет Бремнер (Margaret Bremner), Джейзин Холл (Jaxin Hall)
Описание: Четверых детей родители отправляют из Лондона в деревню, к старому профессору — другу семьи. В его доме дети обнаруживают таинственный платяной шкаф, посредством которого они попадают в сказочную страну Нарнию, где обитают фантастические люди, животные и существа.Оказывается, что эта мирная страна находится под властью злой Колдуньи, из-за которой там — вечная зима. Дети должны помочь царю Аслану (Великому Льву, который много столетий назад основал Нарнию) победить Колдунью, разрушить заклинания и освободить жителей Нарнии&3;
Рейтинг MPAA: -- --Качество: BDRip
Формат: MKV
Видео кодек: H.264 (AVC)
Аудио кодеk: AC3
Видео: 1920x816 (2.35:1), 23.976 fps, AVC, 6 942 Kbps
Аудио: Russian, AC3, 640 Kbps, 48.0 KHz, 6 ch
Аудио #2:English, AC3, 384 Kbps, 48.0 KHz, 6 ch

МедиаИнфо

Код:
General
Complete name                    : The Chronicles of Narnia(2005)1080p-F.ND.mkv
Format                           : Matroska
File size                        : 7.94 GiB
Duration                         : 2h 22mn
Overall bit rate                 : 7 959 Kbps
Encoded date                     : UTC 2012-05-08 13:29:59
Writing application              : mkvmerge v5.4.0 ('Piper') built on Mar 10 2012 13:34:39
Writing library                  : libebml v1.2.3 + libmatroska v1.3.0
Video
ID                               : 1
Format                           : AVC
Format/Info                      : Advanced Video Codec
Format profile                   : [email protected]
Format settings, CABAC           : Yes
Format settings, ReFrames        : 5 frames
Format settings, GOP             : M=8, N=16
Muxing mode                      : Container [email protected]
Codec ID                         : V_MPEG4/ISO/AVC
Duration                         : 2h 22mn
Bit rate                         : 6 942 Kbps
Width                            : 1 920 pixels
Height                           : 816 pixels
Display aspect ratio             : 2.35:1
Frame rate                       : 23.976 fps
Color space                      : YUV
Chroma subsampling               : 4:2:0
Bit depth                        : 8 bits
Scan type                        : Progressive
Bits/(Pixel*Frame)               : 0.185
Stream size                      : 6.76 GiB (85%)
Writing library                  : x264 core 122 r2184 5c85e0a
Encoding settings                : cabac=1 / ref=5 / deblock=1:-3:-3 / analyse=0x3:0x113 / me=umh / subme=10 / psy=1 / psy_rd=0.90:0.00 / mixed_ref=1 / me_range=48 / chroma_me=1 / trellis=2 / 8x8dct=1 / cqm=0 / deadzone=21,11 / fast_pskip=0 / chroma_qp_offset=0 / threads=6 / sliced_threads=0 / nr=0 / decimate=1 / interlaced=0 / bluray_compat=0 / constrained_intra=0 / bframes=7 / b_pyramid=2 / b_adapt=2 / b_bias=0 / direct=3 / weightb=1 / open_gop=0 / weightp=2 / keyint=240 / keyint_min=23 / scenecut=40 / intra_refresh=0 / rc=2pass / mbtree=0 / bitrate=6942 / ratetol=1.0 / qcomp=0.70 / qpmin=0 / qpmax=69 / qpstep=4 / cplxblur=20.0 / qblur=0.5 / ip_ratio=1.40 / pb_ratio=1.30 / aq=2:0.90
Color primaries                  : BT.709-5, BT.1361, IEC 61966-2-4, SMPTE RP177
Transfer characteristics         : BT.709-5, BT.1361
Matrix coefficients              : BT.709-5, BT.1361, IEC 61966-2-4 709, SMPTE RP177
Audio #1
ID                               : 2
Format                           : AC-3
Format/Info                      : Audio Coding 3
Mode extension                   : CM (complete main)
Codec ID                         : A_AC3
Duration                         : 2h 22mn
Bit rate mode                    : Constant
Bit rate                         : 640 Kbps
Channel(s)                       : 6 channels
Channel positions                : Front: L C R, Side: L R, LFE
Sampling rate                    : 48.0 KHz
Bit depth                        : 16 bits
Stream size                      : 654 MiB (8%)
Language                         : Russian
Audio #2
ID                               : 3
Format                           : AC-3
Format/Info                      : Audio Coding 3
Mode extension                   : CM (complete main)
Codec ID                         : A_AC3
Duration                         : 2h 22mn
Bit rate mode                    : Constant
Bit rate                         : 384 Kbps
Channel(s)                       : 6 channels
Channel positions                : Front: L C R, Side: L R, LFE
Sampling rate                    : 48.0 KHz
Bit depth                        : 16 bits
Stream size                      : 392 MiB (5%)
Text #1
ID                               : 4
Format                           : UTF-8
Codec ID                         : S_TEXT/UTF8
Codec ID/Info                    : UTF-8 Plain Text
Language                         : Russian
Text #2
ID                               : 5
Format                           : UTF-8
Codec ID                         : S_TEXT/UTF8
Codec ID/Info                    : UTF-8 Plain Text
Menu
00:00:00.000                     : en:Chapter 01
00:07:07.635                     : en:Chapter 02
00:11:15.049                     : en:Chapter 03
00:18:23.143                     : en:Chapter 04
00:24:34.222                     : en:Chapter 05
00:29:45.784                     : en:Chapter 06
00:34:55.760                     : en:Chapter 07
00:39:29.825                     : en:Chapter 08
00:46:50.974                     : en:Chapter 09
00:50:23.353                     : en:Chapter 10
00:56:43.149                     : en:Chapter 11
01:01:15.505                     : en:Chapter 12
01:12:16.749                     : en:Chapter 13
01:18:57.232                     : en:Chapter 14
01:24:36.404                     : en:Chapter 15
01:31:49.879                     : en:Chapter 16
01:37:41.605                     : en:Chapter 17
01:46:13.617                     : en:Chapter 18
01:49:13.880                     : en:Chapter 19
01:52:39.169                     : en:Chapter 20
01:55:00.727                     : en:Chapter 21
01:59:29.078                     : en:Chapter 22
02:05:30.022                     : en:Chapter 23
02:11:34.052                     : en:Chapter 24
02:22:51.437                     : en:Chapter 25

Знаете ли Вы, что...

» Несмотря на то, что данная картина станет лишь пробным камнем в экранизации новелл К. С. Льюиса, продюсеры заранее приобрели права на экранизацию всей серии, насчитывающей семь книг.
» Картина получила два «липовых» рабочих названия: «Столетняя зима» (The Hundred Year Winter) и «Паравэл» (Paravel). Знаки в Оклэнде, помогавшие съемочной группе добраться до съемочной площадки, гласили именно «Paravel», дабы сбить с толку толпы фанатов, пытающихся попасть на съемки.
» Роль Белой Колдуньи по имени Джэйдис должна была достаться Мишель Пфайффер, но из-за семейных обстоятельств актриса была вынуждена отказаться. Мишель была единственной кинозвездой, к кому решили обратиться продюсеры. В итоге роль Колдуньи досталась не хватающей звезд с неба Тильде Свинтон, которая так и не удосужилась прочитать книгу до начала съемок.
» Сопродюсер картины, Даглас Грешам, приходится пасынком автору новеллы, на основе которой был разработан сценарий.
» Льва по имени Аслан должен был озвучивать Брайан Кокс, однако данная роль досталась Лайаму Нисону. Кстати, с турецкого языка слово «aslan» переводится как «лев».
» Создатели картины хотели доставить 12 оленей в Новую Зеландию, которые бы тянули за собой сани Снежной Королевы. Однако Министерство Земледелия выступило против данной затеи, мотивируя свое решение Ку-лихорадкой, от которой страдают многие особи североамериканских оленей. Данная болезнь легко может передаваться от животных к людям. Чтобы не подвергать съемочную группу серьезному риску, было принято решение поменять оленей на волков (но не 12, а 6).
» Сначала планировалось использовать в фильме настоящего льва и его макеты, но когда сьемочная группа получила CG-тест, в котором две девочки идут по улице со львом, было решено создать льва с помощью компьютерной графики.


Скриншоты

     
     

_________________
Человек – это канат, натянутый между животным и сверхчеловеком, – канат над пропастью.
В человеке ценно то, что он мост, а не цель. Фридрих Ницше
Other forum [Profile] [PM]
Display posts from previous:    
Reply to topic

The time now is: Today 03:33

All times are GMT + 3 Hours



You cannot post new topics in this forum
You cannot reply to topics in this forum
You cannot edit your posts in this forum
You cannot delete your posts in this forum
You cannot vote in polls in this forum
You cannot attach files in this forum
You cannot download files in this forum