Today is a free download without charge Download

Ленинград / Attack on Leningrad (Александр Буравский / Aleksandr Buravsky) [2009 г., Военная драма, BDRip, 1080p]

Reply to topic
 
Author
Message

Delia ®

Gender:

Longevity: 10 years

Posts: 1821

Торрент-статистика

Post 07-May-2012 22:08

[Quote]

Ленинград / Attack on Leningrad«Some fight. Others fall. All are heroes.»--
Год выпуска: 2007
Страна: Россия
Жанр: драма, военный, ...
Продолжительность: 01:50:22
Перевод: Не требуется (русский) + Субтитры на иностранную речь
Субтитры: русские (srt), английские(неотключаемые,на русскую и немецкую речь)
Режиссер: Александр Буравский
Сценарий: Александр Буравский
Продюсер: Сергей Мелькумов, Александр Буравский, Марина Шмидт, ...
Оператор: Владимир Климов
Композитор: Юрий Потеенко
Художник: Алим Матвейчук, Александр Бойм, Павел Новиков, ...
Монтаж: Кэрол Кравец, М. Скотт Смит, Марина Васильева, ...- В ролях: Мира Сорвино, Армин Мюллер-Шталь, Ольга Сутулова, Алена Стебунова, Михаил Ефремов, Александр Абдулов, Владимир Ильин, Луиза Мосендз, Александр Филиппенко, Сергей Колтаков, Дэвид Веррей, Кристиан Беркель, Александр Байер, Валентин Гафт, Кирилл Лавров, Гэбриел Бирн, Виктор Смирнов, Вадим Логинов, Марат Башаров, Жанна Костенко
Описание: Зима 1941-го. С неба безостановочно сыплются бомбы, превращая дома в руины, а выживших, оставшихся без крова мерзнущих людей душит голод. Гитлер убежден, что блокада превратит ленинградцев в стадо диких зверей, рвущих друг у друга куски пищи. Но ленинградцы остаются людьми. В фильме две героини: Нина Цветкова и Кейт Дэвис. Одна — ленинградка, милиционерша, «рабочая косточка», истовая комсомолка, дочь героя Гражданской, зарубленного в бою с белогвардейцами. А другая — дворянка, родившаяся в Петербурге, дочь белого генерала, эмигрантка, космополитка, журналистка, абсолютно не приспособленная к жизни — не говоря уже о немыслимых тяготах блокады. Они должны быть врагами, но жизнь рассудит иначе. Жизнь, за которую они отчаянно борются.-Премьера (мир): 15 мая 2009, ...
Премьера (РФ): 21 января 2010, «Парадиз»
Рейтинг MPAA: -- --Качество: BDRip
Формат: MKV
Видео кодек: H.264 (AVC)
Аудио кодеk: AC3
Видео: 1920x816 (2.35:1), 24.000 fps, AVC, 5 031 Kbps
Аудио: AC3, 640 Kbps, 48.0 KHz, 6 ch

МедиаИнфо

Код:
General
Complete name                    : Attack on Leningrad(2009)1080p-F.HD.mkv
Format                           : Matroska
File size                        : 4.37 GiB
Duration                         : 1h 50mn
Overall bit rate                 : 5 669 Kbps
Encoded date                     : UTC 2012-05-07 18:11:57
Writing application              : mkvmerge v5.4.0 ('Piper') built on Mar 10 2012 13:34:39
Writing library                  : libebml v1.2.3 + libmatroska v1.3.0
Video
ID                               : 1
Format                           : AVC
Format/Info                      : Advanced Video Codec
Format profile                   : [email protected]
Format settings, CABAC           : Yes
Format settings, ReFrames        : 5 frames
Muxing mode                      : Container [email protected]
Codec ID                         : V_MPEG4/ISO/AVC
Duration                         : 1h 50mn
Bit rate                         : 5 031 Kbps
Width                            : 1 920 pixels
Height                           : 816 pixels
Display aspect ratio             : 2.35:1
Frame rate                       : 24.000 fps
Color space                      : YUV
Chroma subsampling               : 4:2:0
Bit depth                        : 8 bits
Scan type                        : Progressive
Bits/(Pixel*Frame)               : 0.134
Stream size                      : 3.79 GiB (87%)
Writing library                  : x264 core 122 r2184 5c85e0a
Encoding settings                : cabac=1 / ref=5 / deblock=1:-3:-3 / analyse=0x3:0x113 / me=umh / subme=10 / psy=1 / psy_rd=0.90:0.00 / mixed_ref=1 / me_range=32 / chroma_me=1 / trellis=2 / 8x8dct=1 / cqm=0 / deadzone=21,11 / fast_pskip=0 / chroma_qp_offset=1 / threads=6 / sliced_threads=0 / nr=0 / decimate=0 / interlaced=0 / bluray_compat=0 / constrained_intra=0 / bframes=9 / b_pyramid=2 / b_adapt=2 / b_bias=0 / direct=3 / weightb=1 / open_gop=0 / weightp=2 / keyint=240 / keyint_min=24 / scenecut=40 / intra_refresh=0 / rc=2pass / mbtree=0 / bitrate=5031 / ratetol=1.0 / qcomp=0.70 / qpmin=0 / qpmax=69 / qpstep=4 / cplxblur=20.0 / qblur=0.5 / ip_ratio=1.40 / pb_ratio=1.30 / aq=2:0.90
Color primaries                  : BT.709-5, BT.1361, IEC 61966-2-4, SMPTE RP177
Transfer characteristics         : BT.709-5, BT.1361
Matrix coefficients              : BT.709-5, BT.1361, IEC 61966-2-4 709, SMPTE RP177
Audio
ID                               : 2
Format                           : AC-3
Format/Info                      : Audio Coding 3
Mode extension                   : CM (complete main)
Codec ID                         : A_AC3
Duration                         : 1h 50mn
Bit rate mode                    : Constant
Bit rate                         : 640 Kbps
Channel(s)                       : 6 channels
Channel positions                : Front: L C R, Side: L R, LFE
Sampling rate                    : 48.0 KHz
Bit depth                        : 16 bits
Stream size                      : 505 MiB (11%)
Language                         : Russian
Text
ID                               : 3
Format                           : UTF-8
Codec ID                         : S_TEXT/UTF8
Codec ID/Info                    : UTF-8 Plain Text
Menu
00:00:00.000                     : en:Chapter 01
00:07:11.139                     : en:Chapter 02
00:10:56.030                     : en:Chapter 03
00:14:54.268                     : en:Chapter 04
00:17:59.328                     : en:Chapter 05
00:22:35.687                     : en:Chapter 06
00:27:10.420                     : en:Chapter 07
00:32:29.906                     : en:Chapter 08
00:38:32.768                     : en:Chapter 09
00:44:41.053                     : en:Chapter 10
00:49:32.552                     : en:Chapter 11
00:56:12.410                     : en:Chapter 12
01:01:33.439                     : en:Chapter 13
01:06:15.054                     : en:Chapter 14
01:12:31.096                     : en:Chapter 15
01:17:29.728                     : en:Chapter 16
01:23:02.727                     : en:Chapter 17
01:28:32.557                     : en:Chapter 18
01:37:36.684                     : en:Chapter 19
01:44:57.833                     : en:Chapter 20
01:50:42.093                     : en:Chapter 21


Скриншоты

           

_________________
Человек – это канат, натянутый между животным и сверхчеловеком, – канат над пропастью.
В человеке ценно то, что он мост, а не цель. Фридрих Ницше
Other forum [Profile] [PM]
Display posts from previous:    
Reply to topic

The time now is: Today 04:50

All times are GMT + 3 Hours



You cannot post new topics in this forum
You cannot reply to topics in this forum
You cannot edit your posts in this forum
You cannot delete your posts in this forum
You cannot vote in polls in this forum
You cannot attach files in this forum
You cannot download files in this forum