Today is a free download without charge Download

Последняя встреча / Серии: 1-16 из 16 (Александр Аравин) [2010, Россия, боевик, детектив, 2хDVD9] R5 Sub Ukr + Original Rus

Reply to topic
 
Author
Message

Koralina ®

Longevity: 10 years

Posts: 994

Location: Lithuania

Торрент-статистика

Post 07-May-2012 20:31

[Quote]

Последняя встреча Страна: Россия
Студия: Централ Партнершип
Жанр: боевик, детектив
Год выпуска: 2010
Дата выхода DVD: 15 марта 2012, «Новый Диск», «Интер Фильм DVD»
Продолжительность: 800 мин.
Перевод: Оригинал [Лицензия]
Cубтитры: украинские
Оригинальная аудиодорожка: русский
Режиссер: Александр Аравин
В ролях: Валерий Баринов, Владимир Бирюков, Леонид Бичевин, Игорь Головин (II), Николай Козак, Равшана Куркова, Андрей Папанин, Сергей Перегудов, Юрий Печенежский, Александр Половцев, Владислав Резник, Михаил Сидаш, Хельга Филиппова, Витас Эйзенах
Описание: Действие картины разворачивается в далекие 80-е. Четверо молодых ребят познакомились во время учебы в школе КГБ. После окончания этого заведения судьба раскидала их в разные стороны. Кто-то уехал работать за границу, другие остались жить и работать в СССР. Но встреча неизбежна, потому что есть тайна, известная только им…
,
Качество: 2хDVD9 R5
Формат: DVD-Video
Видео кодек: MPEG2
Аудио кодек: AC3
Видео: PAL 4:3 (720x576(2.305)) MPEG Video, 25,000 кадр/сек, 8000 Кбит/сек
Аудио: Russian (Dolby AC3, 2 ch) 160 Кбит/сек, 48,0 КГц

DVDInfo DVD-1

Title:
Size: 6.79 Gb ( 7 124 906 KBytes ) - DVD-9
Enabled regions: 1, 2, 3, 4, 5, 6, 7, 8
VTS_01 :
Play Length: 00:00:15
Video: PAL 16:9 (720x576) VBR, Auto Letterboxed
Audio:
English (Dolby AC3, 2 ch)
VTS_02 :
Play Length: 00:51:16+00:50:49+00:51:01+00:50:57+00:51:20+00:51:18+00:51:30
Video: PAL 4:3 (720x576) VBR
Audio:
Russian (Dolby AC3, 2 ch)
Subtitles:
Ukrainian
VTS_03 :
Play Length: 00:01:33+00:02:18+00:01:50
Video: PAL 16:9 (720x576) VBR, Auto Letterboxed
Audio:
Not specified (Dolby AC3, 2 ch)
Menu Video:
NTSC 4:3 (720x480) VBR
Auto Pan&Scan, Auto Letterboxed
Menu English Language Unit :
Root Menu
Chapter (PTT) Menu
Angle menu

DVDInfo DVD-2

Title:
Size: 6.36 Gb ( 6 669 402 KBytes ) - DVD-9
Enabled regions: 1, 2, 3, 4, 5, 6, 7, 8
VTS_01 :
Play Length: 00:00:15
Video: PAL 16:9 (720x576) VBR, Auto Letterboxed
Audio:
English (Dolby AC3, 2 ch)
VTS_02 :
Play Length: 00:51:00+00:50:40+00:51:40+00:52:00+00:50:20
Video: PAL 4:3 (720x576) VBR
Audio:
Russian (Dolby AC3, 2 ch)
Subtitles:
Ukrainian
VTS_03 :
Play Length: 00:01:33+00:02:18+00:01:50
Video: PAL 16:9 (720x576) VBR, Auto Letterboxed
Audio:
Not specified (Dolby AC3, 2 ch)
Menu Video:
NTSC 4:3 (720x480) VBR
Auto Pan&Scan, Auto Letterboxed
Menu English Language Unit :
Root Menu
Chapter (PTT) Menu
Angle menu

MediaInfo

Общее
Полное имя : J:\Новинки 2012\Poslednjaja.vstrecha.2010.2хDVD9\DVD-1\VIDEO_TS\VTS_02_1.VOB
Формат : MPEG-PS
Размер файла : 1024 Мбайт
Продолжительность : 5 м. 49 с.
Режим общего битрейта : Переменный
Общий поток : 24,5 Мбит/сек
Видео
Идентификатор : 224 (0xE0)
Формат : MPEG Video
Версия формата : Version 2
Профиль формата : [email protected]
Параметр BVOP формата : Да
Параметр матрицы формата : Выборочная
Продолжительность : 5 м. 49 с.
Вид битрейта : Переменный
Битрейт : 23,9 Мбит/сек
Максимальный битрейт : 8000 Кбит/сек
Ширина : 720 пикселей
Высота : 576 пикселей
Соотношение сторон : 4:3
Частота кадров : 25,000 кадров/сек
Стандарт вещания : PAL
Цветовое пространство : YUV
Субдискретизация насыщенности : 4:2:0
Битовая глубина : 8 бит
Тип развёртки : Чересстрочная
Порядок развёртки : Верхнее поле первое
Метод сжатия : С потерями
Бит/(Пиксели*Кадры) : 2.305
Размер потока : 997 Мбайт (97%)
Аудио
Идентификатор : 189 (0xBD)-128 (0x80)
Формат : AC-3
Формат/Информация : Audio Coding 3
Расширение режима : CM (complete main)
Параметр Endianness формата : Big
Режим смешивания : DVD-Video
Продолжительность : 5 м. 49 с.
Вид битрейта : Постоянный
Битрейт : 160 Кбит/сек
Каналы : 2 канала
Расположение каналов : Front: L R
Частота : 48,0 КГц
Битовая глубина : 16 бит
Метод сжатия : С потерями
Размер потока : 6,67 Мбайт (1%)
Текст
Идентификатор : 189 (0xBD)-32 (0x20)
Формат : RLE
Формат/Информация : Run-length encoding
Режим смешивания : DVD-Video

Скриншоты меню

   

Скриншоты сериала

                   

_________________
Other forum [Profile] [PM]
Display posts from previous:    
Reply to topic

The time now is: Today 14:36

All times are GMT + 3 Hours



You cannot post new topics in this forum
You cannot reply to topics in this forum
You cannot edit your posts in this forum
You cannot delete your posts in this forum
You cannot vote in polls in this forum
You cannot attach files in this forum
You cannot download files in this forum