Today is a free download without charge Download

Тайна Сухаревой башни. Чародей равновесия (Сергей Серегин) [2015, Мультфильм, WEB-DLRip]

Reply to topic
 
Author
Message

Omen ®

Longevity: 7 years 11 months

Posts: 181087

Торрент-статистика

Post 26-Jun-2015 21:00

[Quote]

Тайна Сухаревой башни. Чародей равновесия
Страна: Россия
Жанр: Мультфильм
Продолжительность: 01:13:24
Год выпуска: 2015
Перевод: Не требуется
Русские субтитры: нет
Режиссёр: Сергей Серегин
Роли озвучивали: Прохор Чеховской, Ольга Шорохова, Диомид Виноградов, Александр Тараньжин, Станислав Дужников, Вадим Демчог, Алла Санникова, Сергей Габриэлян, Алексей Емцов, Алексей Иващенко
Описание: Москве в Сухаревой башне. Их охраняет граф Яков Брюс — знаменитый сподвижник царя Петра, ученый, колдун и Чародей Равновесия. Ученик Брюса, подросток Петя, случайно узнает о коварных планах Магистра и спешит к Сухаревой башне, чтобы предупредить дочь Брюса Маргариту об опасности. Дети ссорятся и нечаянно разрывают старинный манускрипт, в котором заключена магическая сила Брюса. Для восстановления манускрипта дети отправляются в опасное приключение в Волшебные миры.
Доп. информация: Россия, конец 17 века. Царь Петр Первый издает указ о праздновании Нового года. Ко двору царя под видом ученого-механика приезжает Магистр темной магии, который стремится попасть в Волшебные Миры и вернуть свою магическую силу. Врата Волшебных миров находятся в
Семпл: https://www.sendspace.com/file/hob5th
Качество: WEB-DLRip
Формат: AVI
Видео: XVID; 1655 Кбит/сек; 720х400 (16:9); 25,000 кадров/сек
Аудио: AC-3; 384 Кбит/сек; 6 каналов; 48,0 КГц
Субтитры: Отсутствуют

Подробные технические данные

ОбщееПолное имя : E:\закачки\Человек равновесия [/*spam*/].aviФормат : AVIФормат/Информация : Audio Video InterleaveРазмер файла : 1,05 ГбайтПродолжительность : 1 ч. 13 м.Общий поток : 2049 Кбит/секПрограмма кодирования : VirtualDubMod 1.5.10.2 (build 2540/release)Библиотека кодирования : VirtualDubMod build 2540/release
ВидеоИдентификатор : 0Формат : MPEG-4 VisualПрофиль формата : Advanced [email protected]Параметр BVOP формата : 2Параметр QPel формата : НетПараметр GMC формата : Без точки переходаПараметр матрицы формата : Default (H.263)Идентификатор кодека : XVIDИдентификатор кодека/Подсказка : XviDПродолжительность : 1 ч. 13 м.Битрейт : 1655 Кбит/секШирина : 720 пикселейВысота : 400 пикселейСоотношение сторон : 16:9Частота кадров : 25,000 кадров/секЦветовое пространство : YUVСубдискретизация насыщенности : 4:2:0Битовая глубина : 8 битТип развёртки : ПрогрессивнаяМетод сжатия : С потерямиБит/(Пиксели*Кадры) : 0.230Размер потока : 869 Мбайт (81%)Библиотека кодирования : XviD 1.2.1 (UTC 2008-12-04)
АудиоИдентификатор : 1Формат : AC-3Формат/Информация : Audio Coding 3Расширение режима : CM (complete main)Параметр Endianness формата : BigИдентификатор кодека : 2000Продолжительность : 1 ч. 13 м.Вид битрейта : ПостоянныйБитрейт : 384 Кбит/секКаналы : 6 каналовРасположение каналов : Front: L C R, Side: L R, LFEЧастота : 48,0 КГцБитовая глубина : 16 битМетод сжатия : С потерямиРазмер потока : 202 Мбайт (19%)Выравнивание : Разделение по промежуткамПродолжительность промежутка : 40 мс. (1,00 видеокадр)Время предзагрузки промежутка : 500 мс.

Скриншоты

Other forum [Profile] [PM]
Similar theme
Forum Topic Author Torrent Replies Last Post
./templates/default/images/folder_dl.gif Приключения и квесты Mystery Trackers: Blackrow\'s Secret Collector\'s Edition / Охотники за тайнами. Загадка рода Блэкроу. Коллекционное издание [P] [RUS / ENG] (2014) Omen
1 | 0

0 | 2405

27

2015-06-06 00:09
Omen Latest
Display posts from previous:    
Reply to topic

The time now is: Today 09:03

All times are GMT + 3 Hours



You cannot post new topics in this forum
You cannot reply to topics in this forum
You cannot edit your posts in this forum
You cannot delete your posts in this forum
You cannot vote in polls in this forum
You cannot attach files in this forum
You cannot download files in this forum