Today is a free download without charge Download

Неудержимые / The Expendables (Сильвестр Сталлоне) [2010, боевик, приключения,BDRip720p] R.G. 20th Century Fox

Reply to topic
 
Author
Message

BoxeR ®

Gender:

Longevity: 9 years 2 months

Posts: 423

Торрент-статистика

Post 07-May-2012 10:04

[Quote]


-
Год выпуска: 2010
Страна:
Жанр: боевик, триллер, приключения
Продолжительность: 01:43:27
Перевод: Русский дубляж
Субтитры: нет-Режиссер: Сильвестр Сталлоне
В ролях: Сильвестр Сталлоне, Брюс Уиллис, Джейсон Стэтхэм, Джет Ли, Дольф Лундгрен, Эрик Робертс, Рэнди Кутюр, Стив Остин, Дэвид Зайас, Жизель Итье, Харизма Карпентер и Арнольд Шварценеггер.-Описание: Отряд профессиональных наёмников и отчаянных парней во главе с Барни Россом получает непростое задание — любой ценой найти и уничтожить кровавого тирана-диктатора, нагнетающего страх на мирное население и сеющего хаос в южноамериканской стране. Отправляясь на выполнение нелёгкой миссии, закалённые огнём и водой, прошедшие не одну войну, люди Росса попадают в самое пекло. Отныне им придётся выживать: сплотиться и достигнуть цели, либо отчаяться и погибнуть. И всё же эти храбрые, поистине невозмутимые ребята готовы реализовать даже не реализуемое. Но не всё так просто, как кажется на первый взгляд-
Ripped by Mike Tyson

Качество: BDRip 720p
Формат: MKV
Видео кодек:x264
Аудио кодек: AC3
Видео: 1280 x 544 (2.353) at 23.976 fps, 2530 Кбит/сек
Аудио:
  • Русский дубляж AC-3 at 448 Кбит/сек, 6 каналов, 48,0 КГц

    MediaInfo

    Общее
    Уникальный идентификатор : 276383966838823905922065994625273440272 (0xCFED9DA44E060BE1C094D3BF7D4A2810)
    Полное имя : D:\ФИЛЬМЫ\Неудержимые (R.G. 20th Century Fox)\Неудержимые (R.G. 20th Century Fox).mkv
    Формат : Matroska
    Версия формата : Version 2
    Размер файла : 2,20 Гбайт
    Продолжительность : 1 ч. 43 м.
    Общий поток : 3038 Кбит/сек
    Программа кодирования : XviD4PSP 6.0 / 53.6.0
    Библиотека кодирования : XviD4PSP 6.0 / 53.6.0
    Видео
    Идентификатор : 1
    Формат : AVC
    Формат/Информация : Advanced Video Codec
    Профиль формата : [email protected]
    Параметр CABAC формата : Да
    Параметр ReFrames формата : 3 кадра
    Идентификатор кодека : V_MPEG4/ISO/AVC
    Продолжительность : 1 ч. 43 м.
    Битрейт : 2530 Кбит/сек
    Номинальный битрейт : 2745 Кбит/сек
    Ширина : 1280 пикселей
    Высота : 544 пикселя
    Соотношение сторон : 2,35:1
    Режим частоты кадров : Переменный
    Частота кадров : 23,976 кадра/сек
    Цветовое пространство : YUV
    Субдискретизация насыщенности : 4:2:0
    Битовая глубина : 8 бит
    Тип развёртки : Прогрессивная
    Бит/(Пиксели*Кадры) : 0.152
    Размер потока : 1,83 Гбайт (83%)
    Заголовок : Release for HDCLUB
    Библиотека кодирования : x264 core 116 r2019M 9cc407d
    Настройки программы : cabac=1 / ref=3 / deblock=1:-1:-1 / analyse=0x3:0x133 / me=dia / subme=1 / psy=1 / psy_rd=1.00:0.15 / mixed_ref=1 / me_range=16 / chroma_me=1 / trellis=0 / 8x8dct=1 / cqm=0 / deadzone=21,11 / fast_pskip=1 / chroma_qp_offset=0 / threads=6 / sliced_threads=0 / nr=0 / decimate=1 / interlaced=0 / bluray_compat=0 / constrained_intra=0 / bframes=3 / b_pyramid=1 / b_adapt=0 / b_bias=0 / direct=3 / weightb=1 / open_gop=0 / weightp=0 / keyint=230 / keyint_min=23 / scenecut=40 / intra_refresh=0 / rc_lookahead=40 / rc=cbr / mbtree=1 / bitrate=2745 / ratetol=1.0 / qcomp=0.60 / qpmin=10 / qpmax=51 / qpstep=4 / vbv_maxrate=2745 / vbv_bufsize=2745 / nal_hrd=none / ip_ratio=1.40 / aq=1:1.00
    Язык : English
    Default : Да
    Forced : Нет
    Аудио
    Идентификатор : 2
    Формат : AC-3
    Формат/Информация : Audio Coding 3
    Расширение режима : CM (complete main)
    Идентификатор кодека : A_AC3
    Продолжительность : 1 ч. 43 м.
    Вид битрейта : Постоянный
    Битрейт : 448 Кбит/сек
    Каналы : 6 каналов
    Расположение каналов : Front: L C R, Side: L R, LFE
    Частота : 48,0 КГц
    Битовая глубина : 16 бит
    Метод сжатия : С потерями
    Размер потока : 332 Мбайт (15%)
    Заголовок : AC3 5.1 @ 448 kbps - Дублированный, DVD
    Язык : Russian
    Default : Да
    Forced : Нет

    Скриншоты

             


Last edited by BoxeR on 2012-06-30 23:06; edited 6 times in total
Other forum [Profile] [PM]

Dracula

Longevity: 7 years 8 months

Posts: 11289

Торрент-статистика

Post 13-May-2012 21:22 (after 6 days)

Топик был перенесен из форума Наше кино (2001 - 2011) в форум Фильмы 2006-2011


kogesan
 

Delia

Gender:

Longevity: 11 years

Posts: 1821

Торрент-статистика

Post 31-May-2012 17:36 (after 24 days)

[Quote]

Медиаинфо , пожалуйста , тем более ,что свой рип.

_________________
Человек – это канат, натянутый между животным и сверхчеловеком, – канат над пропастью.
В человеке ценно то, что он мост, а не цель. Фридрих Ницше
Other forum [Profile] [PM]
Display posts from previous:    
Reply to topic

The time now is: Today 11:19

All times are GMT + 3 Hours



You cannot post new topics in this forum
You cannot reply to topics in this forum
You cannot edit your posts in this forum
You cannot delete your posts in this forum
You cannot vote in polls in this forum
You cannot attach files in this forum
You cannot download files in this forum