Today is a free download without charge Download

МЫ. Верим в любовь / W.E. [ Мадонна (2011) драма, мелодрама, история, BDRip 720p ]

Reply to topic
 
Author
Message

Delia ®

Gender:

Longevity: 10 years

Posts: 1821

Торрент-статистика

Post 07-May-2012 09:31

[Quote]

МЫ. Верим в любовь / W.E.«Самая красивая история XX века»--
Год выпуска: 2011
Страна: Великобритания
Жанр: драма, мелодрама, история, ...
Продолжительность: 01:58:54
Перевод: Профессиональный (многоголосый закадровый)
Субтитры: English (srt)
Режиссер: Мадонна
Сценарий: Алек Кешишян, Мадонна
Продюсер: Мадонна, Крис Тикье, Колин Вэйнс, ...
Оператор: Хаген Богданский
Композитор: Абель Корженевски
Художник: Мартин Чайлдс, Хув Артур, Стивен Лоуренс, ...
Монтаж: Дэнни Тулл- В ролях: Эбби Корниш (Abbie Cornish), Андреа Райзборо (Andrea Riseborough), Джеймс Д’Арси (James D'Arcy), Оскар Айзек (Oscar Isaac), Ричард Койл (Richard Coyle), Дэвид Харбор (David Harbour), Джеймс Фокс (James Fox), Джуди Парфитт (Judy Parfitt), Халук Бильгинер (Haluk Bilginer), Джеффри Палмер (Geoffrey Palmer), Натали Дормер (Natalie Dormer), Лоуренс Фокс (Laurence Fox), Дуглас Рейт (Douglas Reith), Кэти МакГрат (Katie McGrath), Кристина Чонг (Christina Chong), Geovannie Gomez, Ник Смитерс (Nick Smithers), Дэмиен Томас (Damien Thomas), Либерти Росс (Liberty Ross), Райан Хейярд (Ryan Hayward)
Описание: Роман короля Великобритании Эдуарда VIII и американки Уоллис Симпсон взбудоражил общественность. На момент знакомства с принцем Эдуардом Симпсон была замужем, а король, если хотел жениться на ней, должен был отречься от престола. Но даже это не помешало их любви.
Рейтинг MPAA: -- --Качество: BDRip
Формат: MKV
Видео кодек: H.264 (AVC)
Аудио кодеk: AC3
Видео: 1280x534 (2.35:1), 23.976 fps, AVC, 4 495 Kbps
Аудио: Russian: AC3, 384 Kbps, 48.0 KHz, 6 ch
Аудио #2:English: AC3, 384 Kbps, 48.0 KHz, 6 ch

МедиаИнфо

Код:
General
Complete name                    : W.E.(2011)720p-F.HD.mkv
Format                           : Matroska
File size                        : 4.37 GiB
Duration                         : 1h 58mn
Overall bit rate                 : 5 262 Kbps
Encoded date                     : UTC 2012-05-06 22:41:29
Writing application              : mkvmerge v5.4.0 ('Piper') built on Mar 10 2012 13:34:39
Writing library                  : libebml v1.2.3 + libmatroska v1.3.0
Video
ID                               : 1
Format                           : AVC
Format/Info                      : Advanced Video Codec
Format profile                   : [email protected]
Format settings, CABAC           : Yes
Format settings, ReFrames        : 9 frames
Muxing mode                      : Container [email protected]
Codec ID                         : V_MPEG4/ISO/AVC
Duration                         : 1h 58mn
Bit rate                         : 4 495 Kbps
Width                            : 1 280 pixels
Height                           : 534 pixels
Display aspect ratio             : 2.35:1
Frame rate                       : 23.976 fps
Color space                      : YUV
Chroma subsampling               : 4:2:0
Bit depth                        : 8 bits
Scan type                        : Progressive
Bits/(Pixel*Frame)               : 0.274
Stream size                      : 3.65 GiB (83%)
Writing library                  : x264 core 122 r2184 5c85e0a
Encoding settings                : cabac=1 / ref=9 / deblock=1:-3:-2 / analyse=0x3:0x133 / me=umh / subme=10 / psy=1 / psy_rd=1.10:0.10 / mixed_ref=1 / me_range=48 / chroma_me=1 / trellis=2 / 8x8dct=1 / cqm=0 / deadzone=21,11 / fast_pskip=0 / chroma_qp_offset=0 / threads=6 / sliced_threads=0 / nr=0 / decimate=1 / interlaced=0 / bluray_compat=0 / constrained_intra=0 / bframes=8 / b_pyramid=2 / b_adapt=2 / b_bias=0 / direct=3 / weightb=1 / open_gop=0 / weightp=2 / keyint=240 / keyint_min=23 / scenecut=40 / intra_refresh=0 / rc=2pass / mbtree=0 / bitrate=4495 / ratetol=1.0 / qcomp=0.80 / qpmin=0 / qpmax=69 / qpstep=4 / cplxblur=20.0 / qblur=0.5 / ip_ratio=1.40 / pb_ratio=1.20 / aq=2:0.90
Color primaries                  : BT.709-5, BT.1361, IEC 61966-2-4, SMPTE RP177
Transfer characteristics         : BT.709-5, BT.1361
Matrix coefficients              : BT.709-5, BT.1361, IEC 61966-2-4 709, SMPTE RP177
Audio #1
ID                               : 2
Format                           : AC-3
Format/Info                      : Audio Coding 3
Mode extension                   : CM (complete main)
Codec ID                         : A_AC3
Duration                         : 1h 58mn
Bit rate mode                    : Constant
Bit rate                         : 384 Kbps
Channel(s)                       : 6 channels
Channel positions                : Front: L C R, Side: L R, LFE
Sampling rate                    : 48.0 KHz
Bit depth                        : 16 bits
Stream size                      : 327 MiB (7%)
Language                         : Russian
Audio #2
ID                               : 3
Format                           : AC-3
Format/Info                      : Audio Coding 3
Mode extension                   : CM (complete main)
Codec ID                         : A_AC3
Duration                         : 1h 58mn
Bit rate mode                    : Constant
Bit rate                         : 384 Kbps
Channel(s)                       : 6 channels
Channel positions                : Front: L C R, Side: L R, LFE
Sampling rate                    : 48.0 KHz
Bit depth                        : 16 bits
Stream size                      : 327 MiB (7%)
Text
ID                               : 4
Format                           : UTF-8
Codec ID                         : S_TEXT/UTF8
Codec ID/Info                    : UTF-8 Plain Text
Menu
00:00:00.000                     : en:Chapter 01
00:04:10.041                     : en:Chapter 02
00:07:31.617                     : en:Chapter 03
00:13:36.315                     : en:Chapter 04
00:20:27.351                     : en:Chapter 05
00:27:49.751                     : en:Chapter 06
00:34:34.362                     : en:Chapter 07
00:42:07.358                     : en:Chapter 08
00:49:47.150                     : en:Chapter 09
00:55:22.819                     : en:Chapter 10
01:01:25.515                     : en:Chapter 11
01:04:54.807                     : en:Chapter 12
01:13:50.759                     : en:Chapter 13
01:22:21.770                     : en:Chapter 14
01:30:13.658                     : en:Chapter 15
01:35:14.875                     : en:Chapter 16
01:42:34.940                     : en:Chapter 17
01:47:54.301                     : en:Chapter 18
01:50:23.908                     : en:Chapter 19
01:53:15.371                     : en:Chapter 20
01:58:54.836                     : en:Chapter 21

Знаете ли Вы, что...

» Главной кандидатурой на роль Уолли Симпсон долгое время была Вера Фармига. Актриса выбыла из проекта по причине беременности, и её заменила Андреа Райзборо.
» Роль короля Эдуарда VIII первоначальна была предложена Юэну МакГрегору. После того как тот выбыл из проекта, его заменил Джеймс Д’Арси.
» Сославшись на творческие разногласия с Мадонной, проект на стадии подготовки к съёмкам покинули один из продюсеров Дэвид Парфитт и директор по кастингу Нина Голд.
» Роль леди Тельмы Фёрнесс первоначально получила Марго Стилли. Актриса выбыла из проекта из-за разногласий с Мадонной.
» Сыгравшие в фильме отца и сына Георга V и Георга VI (Принц Альберт) Джеймс и Лоренс Фокс также являются отцом и сыном.
» Художник по костюмам Ариана Филлипс начала свою работу за год до начала съёмок. Гардероб Уолли Симпсон в фильме насчитывал более 80 костюмов, многие из которых были изготовлены самими престижными европейскими домами мод. Помимо полностью новых моделей использовались также сохранившиеся костюмы того периода, а также специально изготовленные по найденным в архивах меркам и образцам. Всего было изготовлено 60 костюмов для Уолли Симпсон и около 30 для Эдварда.
» Во время съёмок было использовано принадлежащее находящемуся в Шотландии Национальному Музею костюмов свадебное платье работы известного дизайнера Майкла О’Коннора. Руководство музея с большим энтузиазмом отреагировало на запрос создателей фильма. Ранее это же платье было использовано при съёмках телевизионной ленты «Уоллис и Эдуард» (2005). Там его носила Джоэли Ричардсон.
» Для воссоздания значительной ювелирной коллекции Уолли Симпсон была привлечена знаменитая фирма Картье. Её стараниями были воссозданы десять ювелирных украшений, включая изумрудное обручальное кольцо. Также создатели фильма смогли использовать часть сохранившихся реальных украшений Уолли Симпсон. Они находились в архивах крупной французской ювелирной фирмы Ван Клиф и Арпельс и на съёмочной площадке постоянно сопровождались мощной охраной в лице её секьюрити.
» Один из изготовленных фирмой Картье браслетов соскочил с руки Андреа Райзборо и был утерян в море. Для него тут же была заказана замена.
» Во время съёмок были также использованы несколько ювелирных украшений, принадлежащих лично Мадонне. В сцене, когда Уолли опрыскивает духами цветы, её черные и белые жемчужные и бриллиантовые серёжки как раз принадлежали Мадонне.
» В качестве подготовки к роли Мадонна попросила Джеймса Д’Арси научиться балетным танцам, верховой езде и игре на волынке.
» Купившая права на фильм в США Weinstein Company продвигала его как режиссёрский дебют Мадонны. Вышедшая в 2008 году кинолента «Грязь и мудрость» несмотря на продолжительность в 81 минуту была отнесена американским прокатчиком к разряду короткометражек.
» До самого последнего момента Мадонна надеялась, что премьера фильма сможет состояться на Каннском кинофестивале 2011 года. Однако фильм оказался не готов к назначенному сроку. Прибывшим на фестиваль прокатчикам и дистрибьюторам были предложены лишь специально отобранные отрывки из картины.
» Получившая Золотой Глобус песня из фильма «Masterpiece» не удовлетворяла критериям Американской Киноакадемии и потому не могла быть номинирована на Оскар. Она начинается примерно через минуту после появления первых титров, тогда как согласно правилам крайним моментом является как раз самое начало титров.


Скриншоты

     
     

_________________
Человек – это канат, натянутый между животным и сверхчеловеком, – канат над пропастью.
В человеке ценно то, что он мост, а не цель. Фридрих Ницше
Other forum [Profile] [PM]
Display posts from previous:    
Reply to topic

The time now is: Today 10:15

All times are GMT + 3 Hours



You cannot post new topics in this forum
You cannot reply to topics in this forum
You cannot edit your posts in this forum
You cannot delete your posts in this forum
You cannot vote in polls in this forum
You cannot attach files in this forum
You cannot download files in this forum