Today is a free download without charge Download

Шпион (Алексей Андрианов) [2012, Россия, триллер, детектив, приключения, DVD9] R5 «Флагман-Трейд»

Reply to topic
 
Author
Message

Koralina ®

Longevity: 10 years

Posts: 994

Location: Lithuania

Торрент-статистика

Post 07-May-2012 08:42

[Quote]

Шпион«Остановить неизбежное» Страна: Россия
Студия: Канал Россия, Студия Тритэ
Жанр: триллер, детектив, приключения
Год выпуска: 2012
Мировая премьера: 5 апреля 2012
Российская премьера: 5 апреля 2012, «Централ Партнершип»
Дата выхода DVD: 17 мая 2012, «Флагман-Трейд»
Продолжительность: 01:44:23
Перевод: Оригинал [Лицензия]
Cубтитры: нет
Оригинальная аудиодорожка: русский
Режиссер: Алексей Андрианов
В ролях: Данила Козловский, Федор Бондарчук, Владимир Епифанцев, Сергей Газаров, Виктор Вержбицкий, Виктория Толстоганова, Анна Чиповская, Алексей Горбунов, Алексей Гаврилов, Екатерина Мельник
Описание: Весна 1941 года. В центре Москвы разворачивается напряжённый поединок двух разведок. Цель тайной операции Гитлера — дезинформировать Сталина о планах нападения Германии на Советский Союз.
Старший майор Октябрьский и лейтенант Дорин против гения фашистского шпионажа. Схватка на фоне большой истории, освещенной заревом грядущей войны.
Бонусы: Фильм о фильме

Качество: DVD9 R5
Формат: DVD-Video
Видео кодек: MPEG2
Аудио кодек: AC3
Видео: PAL 16:9 (720x576(0.718)) MPEG Video, 25,000 кадр/сек, 7442 Кбит/сек
Аудио: Russian (Dolby AC3, 6 ch) 448 Кбит/сек, 48,0 КГц

DVDInfo

Title:
Size: 7.09 Gb ( 7 430 390 KBytes ) - DVD-9
Enabled regions: 1, 2, 3, 4, 5, 6, 7, 8
VTS_01 :
Play Length: 01:44:23
Video: PAL 16:9 (720x576) VBR, Auto Pan&Scan
Audio:
Russian (Dolby AC3, 6 ch)
VTS_02 :
Play Length: 00:44:05
Video: PAL 4:3 (720x576) VBR
Audio:
Russian (Dolby AC3, 2 ch)
Menu Video:
PAL 16:9 (720x576) VBR
Auto Pan&Scan
Menu Subtitles:
Not specified
Menu Russian Language Unit :
Root Menu

MediaInfo

Общее
Полное имя : J:\Новинки 2012\Shpion.2012.DVD9\VIDEO_TS\VTS_01_1.VOB
Формат : MPEG-PS
Размер файла : 1024 Мбайт
Продолжительность : 17 м.
Режим общего битрейта : Переменный
Общий поток : 8050 Кбит/сек
Видео
Идентификатор : 224 (0xE0)
Формат : MPEG Video
Версия формата : Version 2
Профиль формата : [email protected]
Параметр BVOP формата : Да
Параметр матрицы формата : Выборочная
Продолжительность : 17 м.
Вид битрейта : Переменный
Битрейт : 7442 Кбит/сек
Максимальный битрейт : 8900 Кбит/сек
Ширина : 720 пикселей
Высота : 576 пикселей
Соотношение сторон : 16:9
Частота кадров : 25,000 кадров/сек
Стандарт вещания : PAL
Цветовое пространство : YUV
Субдискретизация насыщенности : 4:2:0
Битовая глубина : 8 бит
Тип развёртки : Чересстрочная
Порядок развёртки : Верхнее поле первое
Метод сжатия : С потерями
Бит/(Пиксели*Кадры) : 0.718
Размер потока : 946 Мбайт (92%)
Аудио
Идентификатор : 189 (0xBD)-128 (0x80)
Формат : AC-3
Формат/Информация : Audio Coding 3
Расширение режима : CM (complete main)
Параметр Endianness формата : Big
Режим смешивания : DVD-Video
Продолжительность : 17 м.
Вид битрейта : Постоянный
Битрейт : 448 Кбит/сек
Каналы : 6 каналов
Расположение каналов : Front: L C R, Side: L R, LFE
Частота : 48,0 КГц
Битовая глубина : 16 бит
Метод сжатия : С потерями
Размер потока : 56,9 Мбайт (6%)

Сканы обложки и диска

 

Скриншоты меню

   

Скриншоты фильма

                   

Скриншоты доп. материалов

               

_________________
Other forum [Profile] [PM]
Display posts from previous:    
Reply to topic

The time now is: Today 21:14

All times are GMT + 3 Hours



You cannot post new topics in this forum
You cannot reply to topics in this forum
You cannot edit your posts in this forum
You cannot delete your posts in this forum
You cannot vote in polls in this forum
You cannot attach files in this forum
You cannot download files in this forum