Сегодня идет свободное скачивание без начисления Download

Онг Бак: Трилогия / Ong Bak: Trilogy (Прачья Пинкаю, Тони Джаа, Панна Риттикрай) [2003-2010, боевик, триллер, BDRip] DVO + VO

Ответить на тему
 
Автор
Сообщение

O.S.A. ®

Пол:

Стаж: 5 лет

Сообщений: 4296

Откуда: СССР

Торрент-статистика

Пост 21-Июн-2015 13:55

[Цитировать]

--Онг Бак: Трилогия / Ong Bak: Trilogy-- Год выпуска: 2003–2010
Страна: Таиланд
Производство: Baa-Ram-Ewe, Sahamongkolfilm Co. Ltd., Iyara Films
Жанр: боевик, триллер-Режиссер: Прачья Пинкаю, Тони Джаа, Панна Риттикрай-В ролях: Петчтай Вонгкамлао, Тони Джа, Пумвари Йодкамол, Сухао Понгвилай, Чумпхорн Тепфитак, Чатевут Ватчаракхун, Ваннакит Сириопут, Рунграви Баридзиндакул, Чаттхапонг Пантанаункул, Нудхапол Асавабхахин, Сарунью Вонгкрачанг, Сорапонг Чатри, Примората Дежудом, Нирут Сиричанья, Петчтай Вонгкамлао, Сантисук Промсири, Паттама Пантонг, Супакорн Китсувон, Натданай Конгтонг...-Описание: «Онг Бак» (англ. Ong-Bak: Muay Thai Warrior) — тайский кинофильм с боевыми искусствами режиссёра Прачия Пинкаю по проекту международной промоутерской компании «Короли Муай Тай» (англ. International promotional company «Kings of Muay Thai») . Слоган фильма: «A new breed of martial arts hero is born». Мировая премьера состоялась 21 января 2003 года. Рейтинг MPAA: детям до 17 лет обязательно присутствие родителей.
Фильм “Онг Бак” имел колоссальный успех и стал супер-хитом. О Тони Джаа заговорили как о новой звезде азиатских боевиков. Тони Джаа в реальности серьезно занимался и продолжает заниматься боевыми искусствами, поэтому мы имеем дело не с фэйком и торжеством спецэффектов, а с настоящими возможностями человеческих мускулов, человеческой плоти. Актеры явно не замахивались на премии, сюжет прост, манера съемок и демонстрация трюка с разных ракурсов заставляет ностальгически вздохнуть, но основной изюминкой фильма является тот самый муай-тай, свежей струей бьющий по восприятию. Когда Тони Джаа стрелой пролетает сквозь хаос разбитого стекла или стоит на ринге, а сверху на него сыплется дождь из монет, — это кадры, которые придутся по вкусу любому. Тайский бокс колоритен, поэтому сочный мордобой удовлетворит даже взыскательного зрителя. Обязателен к просмотру всем любителям жанра.
--

Онг Бак / 2003

--Онг-Бак: Тайский Воин / Ong-Bak: Thai Warrior-- Год выпуска: 2003
Страна: Таиланд
Производство: Baa-Ram-Ewe, Sahamongkolfilm Co. Ltd.
Жанр: боевик, триллер
Продолжительность: 01:44:30
Перевод: Профессиональный (двухголосый закадровый)-Режиссер: Прачья Пинкаю-В ролях: Петчтай Вонгкамлао, Тони Джаа, Пумвари Йодкамол, Сухао Понгвилай, Чумпхорн Тепфитак, Чатевут Ватчаракхун, Ваннакит Сириопут, Рунграви Баридзиндакул, Чаттхапонг Пантанаункул, Нудхапол Асавабхахин...-Описание: Действие фильма начинается в небольшой деревушке Нагпраду, расположенной на северо-востоке Таиланда, жителей которой постигает несчастье — пропала голова статуи Будды по имени Онг Бак. Для того, чтобы вернуть статую, требуется человек, обладающий не только умом, но и физической силой.
Единственный, кто отвечает этим требованиям, — это Тинг перенявший искусство Муай Тай (тайский бокс) у почитаемого в деревне монаха.-- --Качество видео: BDRip
Формат видео: AVI
Видео кодек: XviD
Аудио кодек: AC3
Видео: 704x384 (1.83:1), 24.000 fps, XviD MPEG-4, ~2074 kbps avg, 0.320 bit/pixel
Аудио #1: [Rus] 48.0 kHz, AC3 Dolby Digital, 3/2 (L,C,R,l,r) + LFE ch, ~448.00 kbps avg
Аудио #2: [Thai] 48.0 kHz, AC3 Dolby Digital, 3/2 (L,C,R,l,r) + LFE ch, ~448.00 kbps avg
Субтитры: нет
--Скриншоты:
     
--
--

Онг Бак 2 / 2008

--Онг Бак 2: Непревзойденный / Ong bak 2-- Год выпуска: 2008
Страна: Таиланд
Производство: Iyara Films, Sahamongkolfilm Co. Ltd.
Жанр: боевик, триллер
Продолжительность: 01:37:35
Перевод: Профессиональный (двухголосый закадровый) + Профессиональный (одноголосый закадровый)-Режиссер: Тони Джаа, Панна Риттикрай-В ролях: Тони Джаа, Сарунью Вонгкрачанг, Сорапонг Чатри, Примората Дежудом, Нирут Сиричанья, Петчтай Вонгкамлао, Сантисук Промсири, Паттама Пантонг, Супакорн Китсувон, Натданай Конгтонг ...-Описание: В 1974 году по Буддийскому календарю и в 1421 году от рождества христова влияние королевского двора Аюттаия, времен правления короля Рама II, который сам был родом из этих мест стало более могущественным, чем Сукхотаи. И оно росло с каждым днем, расширяя свои владения на восток. Армия Аюттаия покорила Город Ангелов за 7 месяцев. Год и 3 месяца спустя городской глава Ратчасена, который долгое время вынашивал планы захвата трона начал уничтожать неугодных ему военноначальников. Одним из таких и стал генерал Сингхадачо, сын которого Тиан чудом остался жив и попал в деревню повстанцев Пха Пик Крут, где командир Чер Нан воспитал его, как родного сына. Прошли годы. Но Тиан, который возмужал и стал прекрасным бойцом так и не обрел покоя, омрачая каждый прожитый день черными мыслями о мести жестокому тирану Ратчасене. И день настал...-- --Качество видео: BDRip
Формат видео: AVI
Видео кодек: XviD
Аудио кодек: AC3
Видео: 720x304 (2.37:1), 24.000 fps, XviD MPEG-4, ~2091 kbps avg, 0.398 bit/pixel
Аудио #1: [Rus] 48.0 kHz, AC3 Dolby Digital, 3/2 (L,C,R,l,r) + LFE ch, ~448.00 kbps avg || DVO
Аудио #2: [Rus] 48.0 kHz, AC3 Dolby Digital, 2/0 (L,R) ch, ~192.00 kbps avg || VO
Аудио #3: [Thai] 48.0 kHz, AC3 Dolby Digital, 3/2 (L,C,R,l,r) + LFE ch, ~448.00 kbps avg
Субтитры: нет
--Скриншоты:
     
--
--

Онг Бак 3 / 2010

--Онг Бак 3 / Ong Bak 3-- Год выпуска: 2010
Страна: Таиланд
Производство: Iyara Films
Жанр: боевик, триллер
Продолжительность: 01:38:31
Перевод: Профессиональный (двухголосый закадровый)-Режиссер: Тони Джа, Панна Риттикрай-В ролях: Тони Джаа, Дэн Чупонг, Сарунью Вонгкрачанг, Петчтай Вонгкамлао, Супакорн Китсувон, Примората Дежудом...-Описание: Тиан снова сражается со своим противником — жестоким королем. Воины владыки до полусмерти избивают его и забирают в плен. Но ни пытки, ни душевные муки не сломили сопротивление доблестного воина. Король, не в силах справиться с пленником, решает убить Тиана. В день казни его чудом спасают жители родной деревни. Восстановив свои силы с помощью медитации, Тиан готов к решающей битве со злым черным колдуном.-- --Качество видео: BDRip
Формат видео: AVI
Видео кодек: XviD
Аудио кодек: AC3
Видео: 720x304 (2.37:1), 24.000 fps, XviD MPEG-4, ~2261 kbps avg, 0.430 bit/pixel
Аудио #1: [Rus] 48.0 kHz, AC3 Dolby Digital, 3/2 (L,C,R,l,r) + LFE ch, ~448.00 kbps avg
Аудио #2: [Thai] 48.0 kHz, AC3 Dolby Digital, 3/2 (L,C,R,l,r) + LFE ch, ~448.00 kbps avg
Субтитры: нет
--Скриншоты:
     
--
-- --

_________________

===============================
IGNOSCITO SAEPE ALTERI, NUNQUAM TIBI


Последний раз редактировалось: O.S.A. (2016-01-21 22:43), всего редактировалось 1 раз
Вне форума [Профиль] [ЛС]

O.S.A. ®

Пол:

Стаж: 5 лет

Сообщений: 4296

Откуда: СССР

Торрент-статистика

Пост 21-Июн-2015 14:14 (спустя 18 минут)

[Цитировать]

Media Info (Онг Бак 1, 2, 3)

General
Complete name : W:\O.S.A.\Торренты\Завершенные торренты\Онг Бак [Трилогия} BDRip\1.Ong.Bak.2003.BDRip.avi
Format : AVI
Format/Info : Audio Video Interleave
Format profile : OpenDML
File size : 2.18 GiB
Duration : 1h 44mn
Overall bit rate : 2 988 Kbps
Movie name : Онг Бак / Онг-Бак: Тайский воин / Ong-bak (2003) BDRip
Director : Gellard
Writing application : VirtualDubModRus 1.5.10.2 (build 2542/release)
Video
ID : 0
Format : MPEG-4 Visual
Format profile : Advanced [email protected]
Format settings, BVOP : 1
Format settings, QPel : No
Format settings, GMC : No warppoints
Format settings, Matrix : Custom
Codec ID : XVID
Codec ID/Hint : XviD
Duration : 1h 44mn
Bit rate : 2 074 Kbps
Width : 704 pixels
Height : 384 pixels
Display aspect ratio : 16:9
Frame rate : 24.000 fps
Color space : YUV
Chroma subsampling : 4:2:0
Bit depth : 8 bits
Scan type : Progressive
Compression mode : Lossy
Bits/(Pixel*Frame) : 0.320
Stream size : 1.51 GiB (69%)
Writing library : XviD 1.2.1 (UTC 2008-12-04)
Audio #1
ID : 1
Format : AC-3
Format/Info : Audio Coding 3
Mode extension : CM (complete main)
Codec ID : 2000
Duration : 1h 44mn
Bit rate mode : Constant
Bit rate : 448 Kbps
Channel(s) : 6 channels
Channel positions : Front: L C R, Side: L R, LFE
Sampling rate : 48.0 KHz
Bit depth : 16 bits
Compression mode : Lossy
Stream size : 335 MiB (15%)
Alignment : Split accross interleaves
Interleave, duration : 42 ms (1.00 video frame)
Interleave, preload duration : 500 ms
Audio #2
ID : 2
Format : AC-3
Format/Info : Audio Coding 3
Mode extension : CM (complete main)
Codec ID : 2000
Duration : 1h 44mn
Bit rate mode : Constant
Bit rate : 448 Kbps
Channel(s) : 6 channels
Channel positions : Front: L C R, Side: L R, LFE
Sampling rate : 48.0 KHz
Bit depth : 16 bits
Compression mode : Lossy
Stream size : 335 MiB (15%)
Alignment : Split accross interleaves
Interleave, duration : 42 ms (1.00 video frame)
Interleave, preload duration : 500 ms---General
Complete name : W:\O.S.A.\Торренты\Завершенные торренты\Онг Бак [Трилогия} BDRip\2.Ong.Bak.2.2008.BDRip.avi
Format : AVI
Format/Info : Audio Video Interleave
Format profile : OpenDML
File size : 2.18 GiB
Duration : 1h 37mn
Overall bit rate : 3 202 Kbps
Movie name : Онг Бак 2: Непревзойденный / Ong bak 2 (2008) BDRip
Director : Gellard
Writing application : VirtualDubModRus 1.5.10.2 (build 2542/release)
Video
ID : 0
Format : MPEG-4 Visual
Format profile : Advanced [email protected]
Format settings, BVOP : 1
Format settings, QPel : No
Format settings, GMC : No warppoints
Format settings, Matrix : Custom
Codec ID : XVID
Codec ID/Hint : XviD
Duration : 1h 37mn
Bit rate : 2 091 Kbps
Width : 720 pixels
Height : 304 pixels
Display aspect ratio : 2.35:1
Frame rate : 24.000 fps
Color space : YUV
Chroma subsampling : 4:2:0
Bit depth : 8 bits
Scan type : Progressive
Compression mode : Lossy
Bits/(Pixel*Frame) : 0.398
Stream size : 1.43 GiB (65%)
Writing library : XviD 1.2.1 (UTC 2008-12-04)
Audio #1
ID : 1
Format : AC-3
Format/Info : Audio Coding 3
Mode extension : CM (complete main)
Codec ID : 2000
Duration : 1h 37mn
Bit rate mode : Constant
Bit rate : 448 Kbps
Channel(s) : 6 channels
Channel positions : Front: L C R, Side: L R, LFE
Sampling rate : 48.0 KHz
Bit depth : 16 bits
Compression mode : Lossy
Stream size : 313 MiB (14%)
Alignment : Split accross interleaves
Interleave, duration : 42 ms (1.00 video frame)
Interleave, preload duration : 500 ms
Audio #2
ID : 2
Format : AC-3
Format/Info : Audio Coding 3
Mode extension : CM (complete main)
Codec ID : 2000
Duration : 1h 37mn
Bit rate mode : Constant
Bit rate : 192 Kbps
Channel(s) : 2 channels
Channel positions : Front: L R
Sampling rate : 48.0 KHz
Bit depth : 16 bits
Compression mode : Lossy
Stream size : 134 MiB (6%)
Alignment : Split accross interleaves
Interleave, duration : 42 ms (1.00 video frame)
Interleave, preload duration : 500 ms
Audio #3
ID : 3
Format : AC-3
Format/Info : Audio Coding 3
Mode extension : CM (complete main)
Codec ID : 2000
Duration : 1h 37mn
Bit rate mode : Constant
Bit rate : 448 Kbps
Channel(s) : 6 channels
Channel positions : Front: L C R, Side: L R, LFE
Sampling rate : 48.0 KHz
Bit depth : 16 bits
Compression mode : Lossy
Stream size : 313 MiB (14%)
Alignment : Split accross interleaves
Interleave, duration : 42 ms (1.00 video frame)
Interleave, preload duration : 500 ms---General
Complete name : W:\O.S.A.\Торренты\Завершенные торренты\Онг Бак [Трилогия} BDRip\3.Ong.Bak.3.2010.BDRip.avi
Format : AVI
Format/Info : Audio Video Interleave
Format profile : OpenDML
File size : 2.18 GiB
Duration : 1h 38mn
Overall bit rate : 3 175 Kbps
Movie name : Онг Бак 3 / Ong bak 3 (2010) BDRip
Director : Gellard
Writing application : VirtualDubModRus 1.5.10.2 (build 2542/release)
Video
ID : 0
Format : MPEG-4 Visual
Format profile : Advanced [email protected]
Format settings, BVOP : 1
Format settings, QPel : No
Format settings, GMC : No warppoints
Format settings, Matrix : Custom
Codec ID : XVID
Codec ID/Hint : XviD
Duration : 1h 38mn
Bit rate : 2 261 Kbps
Width : 720 pixels
Height : 304 pixels
Display aspect ratio : 2.35:1
Frame rate : 24.000 fps
Color space : YUV
Chroma subsampling : 4:2:0
Bit depth : 8 bits
Scan type : Progressive
Compression mode : Lossy
Bits/(Pixel*Frame) : 0.430
Stream size : 1.56 GiB (71%)
Writing library : XviD 1.2.1 (UTC 2008-12-04)
Audio #1
ID : 1
Format : AC-3
Format/Info : Audio Coding 3
Mode extension : CM (complete main)
Codec ID : 2000
Duration : 1h 38mn
Bit rate mode : Constant
Bit rate : 448 Kbps
Channel(s) : 6 channels
Channel positions : Front: L C R, Side: L R, LFE
Sampling rate : 48.0 KHz
Bit depth : 16 bits
Compression mode : Lossy
Stream size : 316 MiB (14%)
Alignment : Split accross interleaves
Interleave, duration : 42 ms (1.00 video frame)
Interleave, preload duration : 500 ms
Audio #2
ID : 2
Format : AC-3
Format/Info : Audio Coding 3
Mode extension : CM (complete main)
Codec ID : 2000
Duration : 1h 38mn
Bit rate mode : Constant
Bit rate : 448 Kbps
Channel(s) : 6 channels
Channel positions : Front: L C R, Side: L R, LFE
Sampling rate : 48.0 KHz
Bit depth : 16 bits
Compression mode : Lossy
Stream size : 316 MiB (14%)
Alignment : Split accross interleaves
Interleave, duration : 42 ms (1.00 video frame)
Interleave, preload duration : 500 ms

_________________

===============================
IGNOSCITO SAEPE ALTERI, NUNQUAM TIBI
Вне форума [Профиль] [ЛС]

O.S.A. ®

Пол:

Стаж: 5 лет

Сообщений: 4296

Откуда: СССР

Торрент-статистика

Пост 21-Янв-2016 22:45 (спустя 7 месяцев)

[Цитировать]

Зачинил новый постер)))

_________________

===============================
IGNOSCITO SAEPE ALTERI, NUNQUAM TIBI
Вне форума [Профиль] [ЛС]
Показать сообщения:    
Ответить на тему

Текущее время: Сегодня 16:03

Часовой пояс: GMT + 3



Вы не можете начинать темы
Вы не можете отвечать на сообщения
Вы не можете редактировать свои сообщения
Вы не можете удалять свои сообщения
Вы не можете голосовать в опросах
Вы не можете прикреплять файлы к сообщениям
Вы не можете скачивать файлы