Today is a free download without charge Download

Потомки / The Descendants (Александр Пэйн\Alexander Payne) [2011 г., драма, комедия, BDRip720p]

Reply to topic
 
Author
Message

sassad ®

Gender:

Longevity: 10 years

Posts: 1214

Location: Галич

Торрент-статистика

Post 05-May-2012 19:03

[Quote]

Потомки / The Descendants-- Год выпуска: 2011
Страна: США
Жанр: драма, комедия
Продолжительность: 115 мин. / 01:55
Перевод: Профессиональный(дублированный)-Режиссер: Александр Пэйн
Продюссер: Джим Бёрк, Александр Пэйн, Джим Тейлор
Сценарий: Александр Пэйн, Нат Факсон, Джим Рэш
Бюджет: $20 000 000
Премьера в мире: 2 сентября 2011
R - Лицам до 17 лет обязательно присутствие взрослого
7.50 (68 791)

В ролях: Джордж Клуни, Шейлин Вудли, Бо Бриджес, Джуди Грир, Роберт Форстер, Мэттью Лиллард, Амара Миллер, Ник Краузе, Патти Хасти, Грэйс А. Круз-Описание: Главный герой — богатый гавайский землевладелец. Он вместе с двумя дочерьми предпринимает попытку найти любовника жены, искренне веря, что таким образом спасет семейный очаг.-Качество: BDRip720p
Формат: MKV
Видео кодек: H.26x
Аудио кодек: DTS
Видео: MPEG-4 AVC, 6640 Кбит/с, 1280x532
Аудио: Русский (DTS, 6 ch, 755 Кбит/с), английский (DTS, 6 ch, 1510 Кбит/с)

-

M.I

Код:
Complete name : Potomki.2011.D.BDRip.720p.IRONCLUB.mkv
Format : Matroska
Format version : Version 2
File size : 7.16 GiB
Duration : 1h 55mn
Overall bit rate : 8 918 Kbps
Movie name : .....:::IRONCLUB:::.....
Encoded date : UTC 2012-05-05 10:20:22
Writing application : mkvmerge v4.9.1 ('Ich will') сборка от Jul 11 2011 23:53:15
Writing library : libebml v1.2.1 + libmatroska v1.1.1
Video
ID : 1
Format : AVC
Format/Info : Advanced Video Codec
Format profile : [email protected]
Format settings, CABAC : Yes
Format settings, ReFrames : 12 frames
Codec ID : V_MPEG4/ISO/AVC
Duration : 1h 55mn
Bit rate : 6 640 Kbps
Width : 1 280 pixels
Height : 532 pixels
Display aspect ratio : 2.40:1
Frame rate : 23.976 fps
Color space : YUV
Chroma subsampling : 4:2:0
Bit depth : 8 bits
Scan type : Progressive
Bits/(Pixel*Frame) : 0.407
Stream size : 5.20 GiB (73%)
Title : .....:::IRONCLUB:::.....
Writing library : x264 core 120 r2164 da19765
Encoding settings : cabac=1 / ref=12 / deblock=1:-3:-3 / analyse=0x3:0x113 / me=tesa / subme=11 / psy=1 / psy_rd=1.15:0.01 / mixed_ref=1 / me_range=32 / chroma_me=1 / trellis=2 / 8x8dct=1 / cqm=0 / deadzone=21,11 / fast_pskip=0 / chroma_qp_offset=-3 / threads=12 / sliced_threads=0 / nr=0 / decimate=1 / interlaced=0 / bluray_compat=0 / constrained_intra=0 / bframes=6 / b_pyramid=2 / b_adapt=2 / b_bias=0 / direct=3 / weightb=1 / open_gop=0 / weightp=2 / keyint=240 / keyint_min=23 / scenecut=40 / intra_refresh=0 / rc_lookahead=80 / rc=2pass / mbtree=1 / bitrate=6640 / ratetol=1.0 / qcomp=0.70 / qpmin=0 / qpmax=69 / qpstep=4 / cplxblur=20.0 / qblur=0.5 / vbv_maxrate=45000 / vbv_bufsize=43000 / nal_hrd=none / ip_ratio=1.40 / aq=1:0.80
Language : English
Default : Yes
Forced : Yes
Audio #1
ID : 2
Format : DTS
Format/Info : Digital Theater Systems
Codec ID : A_DTS
Duration : 1h 55mn
Bit rate mode : Constant
Bit rate : 755 Kbps
Channel(s) : 6 channels
Channel positions : Front: L C R, Side: L R, LFE
Sampling rate : 48.0 KHz
Bit depth : 24 bits
Compression mode : Lossy
Stream size : 621 MiB (8%)
Title : DTS 5.1 @ 755 kbps - Dub, CEE
Language : Russian
Default : Yes
Forced : Yes
Audio #2
ID : 3
Format : DTS
Format/Info : Digital Theater Systems
Codec ID : A_DTS
Duration : 1h 55mn
Bit rate mode : Constant
Bit rate : 1 510 Kbps
Channel(s) : 6 channels
Channel positions : Front: L C R, Side: L R, LFE
Sampling rate : 48.0 KHz
Bit depth : 24 bits
Compression mode : Lossy
Stream size : 1.21 GiB (17%)
Title : DTS 5.1 @ 1536 kbps
Language : English
Default : No
Forced : No
Text #1
ID : 4
Format : UTF-8
Codec ID : S_TEXT/UTF8
Codec ID/Info : UTF-8 Plain Text
Language : Russian
Default : No
Forced : No
Text #2
ID : 5
Format : UTF-8
Codec ID : S_TEXT/UTF8
Codec ID/Info : UTF-8 Plain Text
Language : Ukrainian
Default : No
Forced : No
Text #3
ID : 6
Format : UTF-8
Codec ID : S_TEXT/UTF8
Codec ID/Info : UTF-8 Plain Text
Language : English
Default : No
Forced : No
Text #4
ID : 7
Format : UTF-8
Codec ID : S_TEXT/UTF8
Codec ID/Info : UTF-8 Plain Text
Title : SDH
Language : English
Default : No
Forced : No
Menu
00:00:00.000 : en:00:00:00.000
00:03:18.990 : en:00:03:18.990
00:06:58.668 : en:00:06:58.668
00:09:09.174 : en:00:09:09.174
00:10:27.877 : en:00:10:27.877
00:14:22.862 : en:00:14:22.862
00:18:03.374 : en:00:18:03.374
00:22:42.444 : en:00:22:42.444
00:26:00.517 : en:00:26:00.517
00:29:37.859 : en:00:29:37.859
00:34:20.975 : en:00:34:20.975
00:36:06.206 : en:00:36:06.206
00:40:00.148 : en:00:40:00.148
00:44:42.680 : en:00:44:42.680
00:47:07.741 : en:00:47:07.741
00:49:18.414 : en:00:49:18.414
00:51:45.769 : en:00:51:45.769
00:53:39.132 : en:00:53:39.132
01:00:01.097 : en:01:00:01.097
01:07:46.646 : en:01:07:46.646
01:12:47.196 : en:01:12:47.196
01:18:39.631 : en:01:18:39.631
01:22:30.320 : en:01:22:30.320
01:25:40.301 : en:01:25:40.301
01:26:38.610 : en:01:26:38.610
01:28:32.682 : en:01:28:32.682
01:31:41.829 : en:01:31:41.829
01:34:30.373 : en:01:34:30.373
01:38:17.349 : en:01:38:17.349
01:43:14.938 : en:01:43:14.938
01:45:42.627 : en:01:45:42.627
01:48:03.643 : en:01:48:03.643
-

Скриншоты

       
-

_________________
Other forum [Profile] [PM]
Similar theme
Forum Topic Author Torrent Replies Last Post
./templates/default/images/folder_dl.gif Историческая литература Андрей Болотов | Жизнь и приключения Андрея Болотова, описанныя самим им для своих потомков. Том 1-3 (2013) [PDF] Omen
1 | 0

0 | 2490

6

2015-01-01 15:06
Omen Latest
Display posts from previous:    
Reply to topic

The time now is: Today 10:06

All times are GMT + 3 Hours



You cannot post new topics in this forum
You cannot reply to topics in this forum
You cannot edit your posts in this forum
You cannot delete your posts in this forum
You cannot vote in polls in this forum
You cannot attach files in this forum
You cannot download files in this forum