Today is a free download without charge Download

Красные xвосты / Red Tails [ Энтони Хемингуэй (2012) боевик, драма, приключения, военный, история , BDRip 1080p ] VO

Reply to topic
 
Author
Message

Delia ®

Gender:

Longevity: 10 years

Posts: 1821

Торрент-статистика

Post 05-May-2012 10:00

[Quote]

Красные xвосты / Red Tails«High-Octane Action and Daring Dogfights!»--
Год выпуска: 2012
Страна: США
Жанр: боевик, драма, приключения, военный, история, ...
Продолжительность: 02:05:00
Перевод: Одноголосый закадровый
Субтитры: English (srt)
Режиссер: Энтони Хемингуэй
Сценарий: Джон Ридли, Аарон МакГрудер, John B. Holway
Продюсер: Рик МакКаллум, Чэз Флойд Джонсон, Ales Komarek, ...
Оператор: Джон Б. Аронсон
Композитор: Теренс Блэнчард
Художник: Майкл Карлин, Ник Палмер, Индржих Кочи, ...
Монтаж: Бен Бертт, Майкл О’Халлоран- В ролях: Терренс Ховард (Terrence Howard), Нэйт Паркер (Nate Parker), Тристан Уайлдс (Tristan Wilds), Элайджа Келли (Elijah Kelley), Лесли Одом мл. (Leslie Odom Jr.), Кевин Филлипс (Kevin Phillips), Метод Мэн (Method Man), Ли Тергесен (Lee Tergesen), Даниэла Руа (Daniela Ruah), Мэттью Марш (Matthew Marsh), Барнеби Кэй (Barnaby Kay), Джошуа Даллас (Joshua Dallas), Майкл Линдли (Michael Lindley), Окези Морро (Okezie Morro), Амел Амин (Aml Ameen), Энтони Уэльс (Anthony Welsh), Рик Отто (Rick Otto), Руперт Пенри-Джонс (Rupert Penry-Jones), Тодд Детуайлер (Todd Detwiler), Райан Ерли (Ryan Early)
Описание: История молодого чернокожего пилота, который превозмогая расизм и неприязнь, сумел сплотить братьев по крови и создал первый в истории воздушный батальон, состоящий исключительно из афроамериканцев.-Премьера (мир): 20 января 2012, ...
Рейтинг MPAA: -- --Качество: BDRip
Формат: MKV
Видео кодек: H.264 (AVC)
Аудио кодеk: AC3
Видео: 1920x800 (2.40:1), 23.976 fps, AVC, 4 430 Kbps
Аудио 48 kHz, AC3 Dolby Digital, 3/2 (L,C,R,l,r) + LFE ch, ~448 kbps
Отдельно на народ.ру::
English:AC3, 384 Kbps, 48.0 KHz, 6 ch

МедиаИнфо

Код:
General
Complete name                    : Red Tails(2012)1080р-F.HD .mkv
Format                           : Matroska
File size                        : 4.37 GiB
Duration                         : 2h 5mn
Overall bit rate                 : 5 005 Kbps
Encoded date                     : UTC 2012-05-04 21:58:05
Writing application              : mkvmerge v5.4.0 ('Piper') built on Mar 10 2012 13:34:39
Writing library                  : libebml v1.2.3 + libmatroska v1.3.0
Video
ID                               : 1
Format                           : AVC
Format/Info                      : Advanced Video Codec
Format profile                   : [email protected]
Format settings, CABAC           : Yes
Format settings, ReFrames        : 5 frames
Muxing mode                      : Container [email protected]
Codec ID                         : V_MPEG4/ISO/AVC
Duration                         : 2h 5mn
Bit rate                         : 4 430 Kbps
Width                            : 1 920 pixels
Height                           : 800 pixels
Display aspect ratio             : 2.40:1
Frame rate                       : 23.976 fps
Color space                      : YUV
Chroma subsampling               : 4:2:0
Bit depth                        : 8 bits
Scan type                        : Progressive
Bits/(Pixel*Frame)               : 0.120
Stream size                      : 3.78 GiB (87%)
Writing library                  : x264 core 122 r2184 5c85e0a
Encoding settings                : cabac=1 / ref=5 / deblock=1:-3:-2 / analyse=0x3:0x133 / me=umh / subme=10 / psy=1 / psy_rd=0.90:0.10 / mixed_ref=1 / me_range=48 / chroma_me=1 / trellis=2 / 8x8dct=1 / cqm=0 / deadzone=21,11 / fast_pskip=0 / chroma_qp_offset=-6 / threads=6 / sliced_threads=0 / nr=0 / decimate=1 / interlaced=0 / bluray_compat=0 / constrained_intra=0 / bframes=8 / b_pyramid=2 / b_adapt=2 / b_bias=0 / direct=3 / weightb=1 / open_gop=0 / weightp=2 / keyint=240 / keyint_min=23 / scenecut=40 / intra_refresh=0 / rc=2pass / mbtree=0 / bitrate=4430 / ratetol=1.0 / qcomp=0.70 / qpmin=0 / qpmax=69 / qpstep=4 / cplxblur=20.0 / qblur=0.5 / ip_ratio=1.40 / pb_ratio=1.20 / aq=2:0.80
Color primaries                  : BT.709-5, BT.1361, IEC 61966-2-4, SMPTE RP177
Transfer characteristics         : BT.709-5, BT.1361
Matrix coefficients              : BT.709-5, BT.1361, IEC 61966-2-4 709, SMPTE RP177
Audio #1
ID                               : 2
Format                           : AC-3
Format/Info                      : Audio Coding 3
Mode extension                   : CM (complete main)
Codec ID                         : A_AC3
Duration                         : 2h 5mn
Bit rate mode                    : Constant
Bit rate                         : 192 Kbps
Channel(s)                       : 2 channels
Channel positions                : Front: L R
Sampling rate                    : 48.0 KHz
Bit depth                        : 16 bits
Stream size                      : 172 MiB (4%)
Language                         : Russian
Audio #2
ID                               : 3
Format                           : AC-3
Format/Info                      : Audio Coding 3
Mode extension                   : CM (complete main)
Codec ID                         : A_AC3
Duration                         : 2h 5mn
Bit rate mode                    : Constant
Bit rate                         : 384 Kbps
Channel(s)                       : 6 channels
Channel positions                : Front: L C R, Side: L R, LFE
Sampling rate                    : 48.0 KHz
Bit depth                        : 16 bits
Stream size                      : 343 MiB (8%)
Text
ID                               : 4
Format                           : UTF-8
Codec ID                         : S_TEXT/UTF8
Codec ID/Info                    : UTF-8 Plain Text
Menu
00:00:00.000                     : en:Chapter 01
00:04:16.881                     : en:Chapter 03
00:11:16.467                     : en:Chapter 05
00:14:29.952                     : en:Chapter 07
00:17:54.698                     : en:Chapter 09
00:19:33.088                     : en:Chapter 11
00:22:49.618                     : en:Chapter 13
00:25:16.932                     : en:Chapter 15
00:28:06.601                     : en:Chapter 17
00:30:34.249                     : en:Chapter 19
00:38:30.433                     : en:Chapter 21
00:44:38.926                     : en:Chapter 23
00:46:44.676                     : en:Chapter 25
00:51:41.431                     : en:Chapter 27
00:54:07.369                     : en:Chapter 29
00:58:42.852                     : en:Chapter 31
01:05:10.656                     : en:Chapter 33
01:10:51.789                     : en:Chapter 35
01:14:51.361                     : en:Chapter 37
01:22:40.121                     : en:Chapter 39
01:25:24.077                     : en:Chapter 41
01:28:40.565                     : en:Chapter 43
01:32:04.769                     : en:Chapter 45
01:33:41.824                     : en:Chapter 47
01:35:42.695                     : en:Chapter 49
01:38:54.470                     : en:Chapter 51
01:40:19.304                     : en:Chapter 53
01:44:29.888                     : en:Chapter 55
01:50:02.429                     : en:Chapter 57
01:54:55.096                     : en:Chapter 59
01:57:07.353                     : en:Chapter 61
01:59:34.667                     : en:Chapter 63
02:05:00.367                     : en:Chapter 64

Знаете ли Вы, что...

» Идея постановки фильма об афроамериканских пилотах, известных под названием Лётчики Таскиги (The Tuskegee Airmen), появилась у Джорджа Лукаса ещё в 1988 году. На то время предположительной датой релиза был 1992 год, сценарием должен был заняться Кевин Салливан, а режиссёром стать Томас Картер.
» После того как от работы с проектом отказались все крупные киностудии Голливуда, Джорджу Лукасу пришлось практически полностью финансировать 58-миллионный бюджет картины плюс выделить дополнительно 35 миллионов долларов на подготовку релиза и рекламную кампанию.
» Летом 2008 года Джордж Лукас в частной беседе предлагал место режиссёра Сэмюэлу Джексону. Рабочий сценарий будущего фильма понравился тому, однако отказаться на полтора года от своей актёрской карьеры Сэмюэл Джексон был не готов.
» Во время съёмок в Чехии актёры прошли две с половиной недели тренировочного лагеря. Условия в нём были максимально приближены к тем, что имели в период подготовки лётчики программы Таскиги в период Второй мировой войны.
» В марте 2010 года при пересъёмке отдельных сцен режиссёр Энтони Хемингуэй был занят работой на телевидении над сериалом «Тримей». В его отсутствие обязанности режиссёра пришлось взять на себя Джорджу Лукасу.
» За семнадцать лет до выхода «Красных хвостов» Кьюба Гудинг-младший сыграл одну из главных ролей в также посвящённом афроамериканским лётчикам телевизионном фильме канала HBO «Пилоты из Таскиги» (1995).
» Терренс Ховард ранее играл лётчика Таскиги в фильме «Война Харта» (2002).
» До стартовавшей в 1941 году экспериментальной программы Таскиги афроамериканцам не разрешалось служить в военной авиации. Всего в рамках этой программы с 1941 по 1946 год было подготовлено 996 афроамериканских пилотов. Окончательное решение об отмене расовой сегрегации в американской армии было принято президентом Трумэном только в 1948 году.
» За пару лет до начала непосредственной работы над фильмом несколько лётчиков-ветеранов получили приглашение на знаменитое ранчо Джорджа Лукаса в Калифорнии. Их рассказы и воспоминания были использованы при дальнейшей разработке проекта.
» Студия Lucasfilm получила доступ к хранящимся в музеях и архивах полётным журналам пилотов программы Таскиги.


Скриншоты

     
     

_________________
Человек – это канат, натянутый между животным и сверхчеловеком, – канат над пропастью.
В человеке ценно то, что он мост, а не цель. Фридрих Ницше
Other forum [Profile] [PM]

Delia ®

Gender:

Longevity: 10 years

Posts: 1821

Торрент-статистика

Post 14-May-2012 09:07 (after 8 days)

[Quote]

Замена дорожки.

_________________
Человек – это канат, натянутый между животным и сверхчеловеком, – канат над пропастью.
В человеке ценно то, что он мост, а не цель. Фридрих Ницше
Other forum [Profile] [PM]
Display posts from previous:    
Reply to topic

The time now is: Today 09:31

All times are GMT + 3 Hours



You cannot post new topics in this forum
You cannot reply to topics in this forum
You cannot edit your posts in this forum
You cannot delete your posts in this forum
You cannot vote in polls in this forum
You cannot attach files in this forum
You cannot download files in this forum